Парень из пузыря / Bubble Boy (Блэр Хэйс / Blair Hayes) [2001, США, комедия, мелодрама, приключения, WEB-DL 720p] MVO (СТС) + Sub Rus, Eng + Original Eng

Ответить на тему
 
Автор Сообщение

user ®

Стаж: 7 лет 7 месяцев

Сообщений: 20008

Пост Пост: #1 от 23-Окт-2014 21:15

[Цитировать]

Парень из пузыря / Bubble Boy
Страна: США
Студия: Touchstone Pictures и др.
Жанр: комедия, мелодрама, приключения
Год выпуска: 2001
Продолжительность: 01:23:42
Перевод: Профессиональный (многоголосый закадровый) СТС
Cубтитры: русские, английские
Оригинальная аудиодорожка: английский
Режиссер: Блэр Хэйс / Blair Hayes
В ролях: Джейк Джилленхол, Свузи Кёрц, Марли Шелтон, Дэнни Трехо, Джон Кэрролл Линч, Верн Тройер, Дейв Шеридан, Брайан Джордж, Патрик Крэншо, Стивен Спинелла
Описание: Человек не должен существовать, отгородившись от всего мира. Если, конечно, он не Джимми Ливингстон, единственный парень на Земле, родившийся с неработающей имунной системой. Один микроб — и Джимми конец.
Поэтому живет он в пузыре из герметичного пластика с прозрачными стенками, обеспечивающем ему островок полной стерильности. Однажды Ливингстон влюбился в свою соседку Хло. Но, увы, Хло собирается сочетаться браком с другим — за много миль от пластиковой тюрьмы героя.
Но Джимми, презрев опасности, в специальном скафандре храбро отправляется в путешествие — через всю страну, чтобы успеть сообщить о своих чувствах любимой до того, как та совершит роковую ошибку.

Доп. информация: За дорожку СТС спасибо bigfoothart.
Sample
Тип релиза: WEB-DL 720p
Контейнер: MKV
Видео: MPEG4 AVC Video, H264, 16:9, 1280x544, 23.976 fps, 3962 kbps
Аудио: Russian (AC3, 6 ch, 448 kbps, 16 bits, 48.0 KHz) - СТС
Аудио 2: English (AC3, 6 ch, 384 kbps, 16 bits, 48.0 KHz) - оригинал
Формат субтитров: softsub (SRT)

MediaInfo
General
Unique ID : 198843466036227849411700122316064804932 (0x9597DBC9D57E1B38A714992B6D89D044)
Complete name : K:\Bubble Boy 2001 WEB-DL 720p.mkv
Format : Matroska
Format version : Version 4 / Version 2
File size : 2.86 GiB
Duration : 1h 23mn
Overall bit rate : 4 892 Kbps
Encoded date : UTC 2014-10-22 07:54:58
Writing application : mkvmerge v6.1.0 ('Old Devil') built on Mar 2 2013 14:32:37
Writing library : libebml v1.3.0 + libmatroska v1.4.0
Video
ID : 1
Format : AVC
Format/Info : Advanced Video Codec
Format profile : Main@L3.1
Format settings, CABAC : No
Format settings, ReFrames : 2 frames
Codec ID : V_MPEG4/ISO/AVC
Duration : 1h 23mn
Bit rate : 3 962 Kbps
Width : 1 280 pixels
Height : 544 pixels
Display aspect ratio : 2.35:1
Frame rate mode : Constant
Frame rate : 23.976 fps
Color space : YUV
Chroma subsampling : 4:2:0
Bit depth : 8 bits
Scan type : Progressive
Bits/(Pixel*Frame) : 0.237
Stream size : 2.32 GiB (81%)
Language : English
Default : Yes
Forced : No
Color primaries : BT.709
Transfer characteristics : BT.709
Matrix coefficients : BT.709
Audio #1
ID : 2
Format : AC-3
Format/Info : Audio Coding 3
Mode extension : CM (complete main)
Format settings, Endianness : Big
Codec ID : A_AC3
Duration : 1h 23mn
Bit rate mode : Constant
Bit rate : 448 Kbps
Channel count : 6 channels
Channel positions : Front: L C R, Side: L R, LFE
Sampling rate : 48.0 KHz
Bit depth : 16 bits
Compression mode : Lossy
Stream size : 268 MiB (9%)
Title : MVO
Language : Russian
Default : Yes
Forced : Yes
Audio #2
ID : 3
Format : AC-3
Format/Info : Audio Coding 3
Mode extension : CM (complete main)
Format settings, Endianness : Big
Codec ID : A_AC3
Duration : 1h 23mn
Bit rate mode : Constant
Bit rate : 384 Kbps
Channel count : 6 channels
Channel positions : Front: L C R, Side: L R, LFE
Sampling rate : 48.0 KHz
Bit depth : 16 bits
Compression mode : Lossy
Stream size : 230 MiB (8%)
Language : English
Default : No
Forced : No
Text #1
ID : 4
Format : UTF-8
Codec ID : S_TEXT/UTF8
Codec ID/Info : UTF-8 Plain Text
Language : Russian
Default : No
Forced : No
Text #2
ID : 5
Format : UTF-8
Codec ID : S_TEXT/UTF8
Codec ID/Info : UTF-8 Plain Text
Language : English
Default : No
Forced : No
Menu
00:00:00.000 : en:Opening Title/Gift Wrapped From Heaven
00:04:25.000 : en:The Girl Next Door
00:11:03.000 : en:Mark
00:17:54.000 : en:Out in the World
00:20:29.000 : en:Bright and Shiny
00:25:32.000 : en:Chosen Vato
00:31:16.000 : en:Las Vegas
00:35:18.000 : en:Dr. Phreak
00:39:56.000 : en:Ice Cream and Curry
00:50:50.000 : en:Five Hundred Dollars
00:58:28.000 : en:No Regrets
01:06:19.000 : en:The Chase
01:10:51.000 : en:Jimmy & Chloe
01:17:11.000 : en:End Credits
Скриншоты
Скачать

Скачать торрент!

Как скачивать? · Что такое торрент? · Рейтинг и ограничения

Сайт не распространяет и не хранит электронные версии произведений, а лишь предоставляет доступ к создаваемому пользователями каталогу ссылок на торрент-файлы, которые содержат только списки хеш-сумм

[Профиль] [ЛС]
Показать сообщения:    
Ответить на тему

Текущее время: Сегодня 13:40

Часовой пояс: GMT + 4



Вы не можете начинать темы
Вы не можете отвечать на сообщения
Вы не можете редактировать свои сообщения
Вы не можете удалять свои сообщения
Вы не можете голосовать в опросах
Вы не можете прикреплять файлы к сообщениям
Вы не можете скачивать файлы