Безумец / Madman (Джо Джианнон / Joe Giannone) [1982, США, ужасы, триллер, WEB-DL 720p] VO (М. Логинофф) + Original Eng

Ответить на тему
 
Автор Сообщение

user ®

Стаж: 7 лет 7 месяцев

Сообщений: 20008

Пост Пост: #1 от 23-Окт-2014 21:15

[Цитировать]

Безумец / Madman
Страна: США
Студия: The Legend Lives Company
Жанр: ужасы, триллер
Год выпуска: 1982
Продолжительность: 01:28:22
Перевод: Одноголосый закадровый М. Логинофф
Cубтитры: нет
Оригинальная аудиодорожка: английский
Режиссер: Джо Джианнон / Joe Giannone
В ролях: Гэйлен Росс, Тони Фиш, Харриет Басс, Сет Джонс, Жан Клер, Александр Мерфи мл., Том Кандела, Карл Фредерикс, Майкл Салливан, Пол Элерс
Описание: Летний лагерь для подростков. Вожатые и дети сидят вокруг костра и, как водится, рассказывают страшные истории. Последним выступает Макс. Он рассказывает, что недалеко от лагеря за лесом некогда жил обыкновенный фермер, который много пил, дрался в местном баре, бил своих детей и жену. Однажды он вообще «слетел с катушек», взял топор и зарубил всю свою семью, после чего навсегда исчез. Макс добавляет, что если громко произнести имя фермера «Безумец Марз», то он появится из леса. Один вожатый в шутку громко кричит имя Марза, после чего все расходятся по своим комнатам готовиться ко сну.
Согласно рассказанной легенде, в лагере появляется маньяк и начинает одного за другим убивать тинейджеров…


Sample
Тип релиза: WEB-DL 720p
Контейнер: MKV
Видео: MPEG4 AVC Video, H264, 16:9, 1276x720, 23.976 fps, 3809 kbps
Аудио: Russian (AC3, 2 ch, 192 kbps, 16 bits, 48.0 KHz) - М. Логинофф
Аудио 2: English (AC3, 2 ch, 192 kbps, 16 bits, 48.0 KHz) - оригинал
MediaInfo
General
Unique ID : 213924469641949104929117518937900295164 (0xA0F05AAC54AD089592BDB124D3D1A3FC)
Complete name : L:\Madman 1982 WEB-DL 720p.mkv
Format : Matroska
Format version : Version 4 / Version 2
File size : 2.64 GiB
Duration : 1h 28mn
Overall bit rate : 4 278 Kbps
Encoded date : UTC 2014-10-22 10:01:34
Writing application : mkvmerge v6.1.0 ('Old Devil') built on Mar 2 2013 14:32:37
Writing library : libebml v1.3.0 + libmatroska v1.4.0
Video
ID : 1
Format : AVC
Format/Info : Advanced Video Codec
Format profile : High@L3.1
Format settings, CABAC : No
Format settings, ReFrames : 2 frames
Codec ID : V_MPEG4/ISO/AVC
Duration : 1h 28mn
Bit rate : 3 809 Kbps
Width : 1 276 pixels
Height : 720 pixels
Display aspect ratio : 16:9
Frame rate mode : Constant
Frame rate : 23.976 fps
Color space : YUV
Chroma subsampling : 4:2:0
Bit depth : 8 bits
Scan type : Progressive
Bits/(Pixel*Frame) : 0.173
Stream size : 2.35 GiB (89%)
Language : English
Default : Yes
Forced : No
Color primaries : BT.709
Transfer characteristics : BT.709
Matrix coefficients : BT.709
Audio #1
ID : 2
Format : AC-3
Format/Info : Audio Coding 3
Mode extension : CM (complete main)
Format settings, Endianness : Big
Codec ID : A_AC3
Duration : 1h 28mn
Bit rate mode : Constant
Bit rate : 192 Kbps
Channel count : 2 channels
Channel positions : Front: L R
Sampling rate : 48.0 KHz
Bit depth : 16 bits
Compression mode : Lossy
Stream size : 121 MiB (4%)
Language : Russian
Default : Yes
Forced : No
Audio #2
ID : 3
Format : AC-3
Format/Info : Audio Coding 3
Mode extension : CM (complete main)
Format settings, Endianness : Big
Codec ID : A_AC3
Duration : 1h 28mn
Bit rate mode : Constant
Bit rate : 192 Kbps
Channel count : 2 channels
Channel positions : Front: L R
Sampling rate : 48.0 KHz
Bit depth : 16 bits
Compression mode : Lossy
Stream size : 121 MiB (4%)
Language : English
Default : No
Forced : No
Скриншоты
Скачать

Скачать торрент!

Как скачивать? · Что такое торрент? · Рейтинг и ограничения

Сайт не распространяет и не хранит электронные версии произведений, а лишь предоставляет доступ к создаваемому пользователями каталогу ссылок на торрент-файлы, которые содержат только списки хеш-сумм

[Профиль] [ЛС]
Показать сообщения:    
Ответить на тему

Текущее время: Сегодня 22:33

Часовой пояс: GMT + 4



Вы не можете начинать темы
Вы не можете отвечать на сообщения
Вы не можете редактировать свои сообщения
Вы не можете удалять свои сообщения
Вы не можете голосовать в опросах
Вы не можете прикреплять файлы к сообщениям
Вы не можете скачивать файлы