Лепрекон / Leprechaun (Марк Джонс / Mark Jones) [1993, США, ужасы, фэнтези, комедия, BDRip 720p] AVO (Михалёв) + MVO (CP Digital) + MVO (РЕН-ТВ) + Original Eng

Ответить на тему
 
Автор Сообщение

user ®

Стаж: 7 лет 7 месяцев

Сообщений: 20008

Пост Пост: #1 от 23-Окт-2014 21:15

[Цитировать]

Лепрекон / Leprechaun
Страна: США, Trimark Pictures
Жанр: Ужасы, фэнтези, комедия
Год выпуска: 1993
Продолжительность: 1:31:25
Перевод: Авторский (одноголосый закадровый) Михалёв
Перевод 2: Профессиональный (многоголосый закадровый) CP Digital
Перевод 3: Профессиональный (многоголосый закадровый) РЕН-ТВ
Cубтитры: нет
Оригинальная аудиодорожка: английский
Режиссер: Марк Джонс / Mark Jones
В ролях: Уорвик Дэвис, Дженнифер Энистон, Кен Оландт, Марк Холтон, Роберт Хай Гормен, Шэй Даффин, Джон Сандерфорд, Джон Волдстад, Памела Мэнт, Уильям Ньюман
Описание: Мистер О'Грейди неожиданно приезжает из Ирландии богатым человеком. Жена О'Грейди думает, что он просто пьян и не в своём уме, когда О'Грейди заявляет, что он украл золото у Лепрекона и сейчас они заживут по-новому.
Правда, он не учёл маленькой детали: сам Лепрекон каким-то образом приехал вместе с ним в одном из чемоданов и одержим местью к тому, кто позарился на его богатства…
Сэмпл: http://multi-up.com/1007636
Качество видео: BDRip 720p
Формат видео: MKV
Видео: 6000 Kbps, 1280*720 pixels, 16:9, 23.976 fps
Аудио: DTS, 1 510 Kbps, 2 channels, 48.0 KHz, 24 bits - Михалёв
Аудио 2: AC3, 448 Kbps, 6 channels, 48.0 KHz, 16 bits - CP Digital
Аудио 3: AC3, 192 Kbps, 2 channels, 48.0 KHz, 16 bits - РЕН-ТВ
Аудио 4: DTS, 1 510 Kbps, 2 channels, 48.0 KHz, 24 bits - eng
MediaInfo
I:\ СПАМ 720p.mkv
General
Unique ID : 195179864993196260067185807130072979082 (0x92D6464FABD1533D83BE8689C668168A)
Complete name : I:\ СПАМ 720p.mkv
Format : Matroska
Format version : Version 4 / Version 2
File size : 6.17 GiB
Duration : 1h 31mn
Overall bit rate : 9 658 Kbps
Encoded date : UTC 2014-10-21 13:56:22
Writing application : mkvmerge v6.1.0 ('Old Devil') built on Mar 4 2013 09:10:42
Writing library : libebml v1.3.0 libmatroska v1.4.0
Video #1
ID : 1
Format : AVC
Format/Info : Advanced Video Codec
Format profile : High@L4.1
Format settings, CABAC : Yes
Format settings, ReFrames : 9 frames
Codec ID : V_MPEG4/ISO/AVC
Duration : 1h 31mn
Bit rate : 6 000 Kbps
Width : 1 280 pixels
Height : 720 pixels
Display aspect ratio : 16:9
Frame rate : 23.976 fps
Color space : YUV
Chroma subsampling : 4:2:0
Bit depth : 8 bits
Scan type : Progressive
Bits/(Pixel*Frame) : 0.272
Stream size : 3.71 GiB (60%)
Writing library : x264 core 130 r2273 b3065e6
Encoding settings : cabac=1 / ref=9 / deblock=1:-1:-1 / analyse=0x3:0x133 / me=umh / subme=11 / psy=1 / psy_rd=1.00:0.15 / mixed_ref=1 / me_range=32 / chroma_me=1 / trellis=2 / 8x8dct=1 / cqm=0 / deadzone=21,11 / fast_pskip=1 / chroma_qp_offset=-3 / threads=12 / lookahead_threads=2 / sliced_threads=0 / nr=0 / decimate=1 / interlaced=0 / bluray_compat=0 / constrained_intra=0 / bframes=8 / b_pyramid=2 / b_adapt=2 / b_bias=0 / direct=3 / weightb=1 / open_gop=0 / weightp=2 / keyint=250 / keyint_min=23 / scenecut=40 / intra_refresh=0 / rc_lookahead=60 / rc=2pass / mbtree=1 / bitrate=6000 / ratetol=1.0 / qcomp=0.60 / qpmin=0 / qpmax=69 / qpstep=4 / cplxblur=20.0 / qblur=0.5 / ip_ratio=1.40 / aq=1:1.00
Language : English
Audio #2
ID : 2
Format : DTS
Format/Info : Digital Theater Systems
Codec ID : A_DTS
Duration : 1h 31mn
Bit rate mode : Constant
Bit rate : 1 510 Kbps
Channel(s) : 2 channels
Channel positions : Front: L R
Sampling rate : 48.0 KHz
Bit depth : 24 bits
Compression mode : Lossy
Stream size : 987 MiB (16%)
Title : Михалёв
Audio #3
ID : 3
Format : AC-3
Format/Info : Audio Coding 3
Mode extension : CM (complete main)
Codec ID : A_AC3
Duration : 1h 31mn
Bit rate mode : Constant
Bit rate : 448 Kbps
Channel(s) : 6 channels
Channel positions : Front: L C R, Side: L R, LFE
Sampling rate : 48.0 KHz
Bit depth : 16 bits
Compression mode : Lossy
Stream size : 293 MiB (5%)
Title : CP Digital
Audio #4
ID : 4
Format : AC-3
Format/Info : Audio Coding 3
Mode extension : CM (complete main)
Codec ID : A_AC3
Duration : 1h 31mn
Bit rate mode : Constant
Bit rate : 192 Kbps
Channel(s) : 2 channels
Channel positions : Front: L R
Sampling rate : 48.0 KHz
Bit depth : 16 bits
Compression mode : Lossy
Stream size : 126 MiB (2%)
Title : РЕН-ТВ
Audio #5
ID : 5
Format : DTS
Format/Info : Digital Theater Systems
Codec ID : A_DTS
Duration : 1h 31mn
Bit rate mode : Constant
Bit rate : 1 510 Kbps
Channel(s) : 2 channels
Channel positions : Front: L R
Sampling rate : 48.0 KHz
Bit depth : 24 bits
Compression mode : Lossy
Stream size : 987 MiB (16%)
Title : eng
x264 [info]: frame I:822 Avg QP:16.21 size:126781
x264 [info]: frame P:27233 Avg QP:18.89 size: 51352
x264 [info]: frame B:103474 Avg QP:20.60 size: 25214
Скриншоты
Скачать

Скачать торрент!

Как скачивать? · Что такое торрент? · Рейтинг и ограничения

Сайт не распространяет и не хранит электронные версии произведений, а лишь предоставляет доступ к создаваемому пользователями каталогу ссылок на торрент-файлы, которые содержат только списки хеш-сумм

[Профиль] [ЛС]
Показать сообщения:    
Ответить на тему

Текущее время: Сегодня 15:38

Часовой пояс: GMT + 4



Вы не можете начинать темы
Вы не можете отвечать на сообщения
Вы не можете редактировать свои сообщения
Вы не можете удалять свои сообщения
Вы не можете голосовать в опросах
Вы не можете прикреплять файлы к сообщениям
Вы не можете скачивать файлы