Шаг вперёд: Всё или ничего / Step Up All In (Триш Си / Trish Sie) [2014, США, Мелодрама, драма, WEB-DL 1080p] Dub

Ответить на тему
 
Автор Сообщение

user ®

Стаж: 7 лет 7 месяцев

Сообщений: 20008

Пост Пост: #1 от 23-Окт-2014 21:15

[Цитировать]

Шаг вперёд: Всё или ничего / Step Up All In
Страна: США
Жанр: Мелодрама, драма
Год выпуска: 2014
Продолжительность: 01:51:44
Перевод: Профессиональный (дублированный)
Cубтитры: нет
Оригинальная аудиодорожка: нет
Режиссер: Триш Си / Trish Sie
В ролях: Бриана Эвиган, Элисон Стоунер, Райан Гузман, Адам Дж. Севани, Изабелла Мико, Стивен Босс, Чадд Смит, Мартин Ломбард, Миша Гэбриел Хэмилтон, Эбигейл Рич
Описание: Танцевальная история "Шаг вперед 5" будет происходить в одном с самых азартных городов мира Лас-Вегасе, где все должно быть только на высшем уровне и слабым здесь не место, к тому же это хороший шанс заявить о себе огромной публике. Постановки танцев требуют грандиозности и шику, что бы покорить зрителей в городе, где на каждом мести все сверкает и манит огнями и в такой атмосфере казаться ярким не так то просто.
Сэмпл: http://multi-up.com/1007845
Тип релиза: WEB-DL 1080p
Контейнер: MKV
Видео: H.264/AVC, 16:9, 1920x1080, 24.000 fps, 4938 kbps
Аудио: Russian (AC3, 6 ch, 384 kbps, 16 bits, 48.0 KHz)
MediaInfo
Общее
Уникальный идентификатор : 215605184800012326165762528087626809536 (0xA2340C5406E2ED778E022DEE617500C0)
Полное имя : E:\Downloads\Video\Shag.vper3d.5.2014.D.WEBDL.1080p.mkv
Формат : Matroska
Версия формата : Version 4 / Version 2
Размер файла : 4,24 Гбайт
Продолжительность : 1 ч. 51 м.
Общий поток : 5430 Кбит/сек
Дата кодирования : UTC 2014-10-20 19:23:56
Программа кодирования : mkvmerge v6.9.1 ('Blue Panther') 64bit built on Apr 18 2014 18:23:38
Библиотека кодирования : libebml v1.3.0 + libmatroska v1.4.1
Видео
Идентификатор : 1
Формат : AVC
Формат/Информация : Advanced Video Codec
Профиль формата : High@L4.0
Параметр CABAC формата : Да
Параметр ReFrames формата : 4 кадра
Идентификатор кодека : V_MPEG4/ISO/AVC
Продолжительность : 1 ч. 51 м.
Битрейт : 4938 Кбит/сек
Ширина : 1920 пикселей
Высота : 1080 пикселей
Соотношение сторон : 16:9
Режим частоты кадров : Постоянный
Частота кадров : 24,000 кадра/сек
Цветовое пространство : YUV
Субдискретизация насыщенности : 4:2:0
Битовая глубина : 8 бит
Тип развёртки : Прогрессивная
Бит/(Пиксели*Кадры) : 0.099
Размер потока : 3,85 Гбайт (91%)
Язык : English
Default : Да
Forced : Нет
Основные цвета : BT.709
Характеристики трансфера : BT.709
Коэффициенты матрицы : BT.709
Аудио
Идентификатор : 2
Формат : AC-3
Формат/Информация : Audio Coding 3
Расширение режима : CM (complete main)
Параметр Endianness формата : Big
Идентификатор кодека : A_AC3
Продолжительность : 1 ч. 51 м.
Вид битрейта : Постоянный
Битрейт : 384 Кбит/сек
Каналы : 6 каналов
Расположение каналов : Front: L C R, Side: L R, LFE
Частота : 48,0 КГц
Битовая глубина : 16 бит
Метод сжатия : С потерями
Размер потока : 307 Мбайт (7%)
Язык : Russian
Default : Да
Forced : Нет
Меню
00:00:00.000 : en:Глава 1
00:05:39.000 : en:Глава 2
00:12:04.000 : en:Глава 3
00:17:36.000 : en:Глава 4
00:22:46.000 : en:Глава 5
00:27:38.000 : en:Глава 6
00:32:52.000 : en:Глава 7
00:39:13.000 : en:Глава 8
00:44:59.000 : en:Глава 9
00:50:40.000 : en:Глава 10
00:56:48.000 : en:Глава 11
01:02:59.000 : en:Глава 12
01:07:01.000 : en:Глава 13
01:14:17.000 : en:Глава 14
01:19:03.000 : en:Глава 15
01:25:54.000 : en:Глава 16
01:29:17.000 : en:Глава 17
01:34:27.000 : en:Глава 18
01:40:26.000 : en:Глава 19
Скриншоты
Скачать

Скачать торрент!

Как скачивать? · Что такое торрент? · Рейтинг и ограничения

Сайт не распространяет и не хранит электронные версии произведений, а лишь предоставляет доступ к создаваемому пользователями каталогу ссылок на торрент-файлы, которые содержат только списки хеш-сумм

[Профиль] [ЛС]
Показать сообщения:    
Ответить на тему

Текущее время: Сегодня 05:59

Часовой пояс: GMT + 4



Вы не можете начинать темы
Вы не можете отвечать на сообщения
Вы не можете редактировать свои сообщения
Вы не можете удалять свои сообщения
Вы не можете голосовать в опросах
Вы не можете прикреплять файлы к сообщениям
Вы не можете скачивать файлы