Хотел бы я быть здесь / Wish I Was Here (Зак Брафф / Zach Braff) [2014, США, драма, комедия, BDRip] Dub R5

Ответить на тему
 
Автор Сообщение

user ®

Стаж: 7 лет 7 месяцев

Сообщений: 20008

Пост Пост: #1 от 23-Окт-2014 11:50

[Цитировать]

Хотел бы я быть здесь / Wish I Was Here
«Жизнь — это шанс. Воспользуйся им»
-Страна: США / Double Feature Films, Wild Bunch, Worldview Entertainment
Жанр: драма, комедия
Год выпуска: 2014
Продолжительность: 01:46:33
Перевод: Профессиональный (дублированный) лицензия R5
Cубтитры: нет
Режиссёр: Зак Брафф / Zach Braff
В ролях: Зак Брафф, Пирс Гэнон, Кейт Хадсон, Джои Кинг, Александр Чаплин, Лесли Дэвид Бэйкер, Джеймс Эйври, Ато Эссонда, Джим Парсонс, Марк Тудиум, Мэнди Пэтинкин, Джош Гад, Аллан Рич, Эшли Грин, Майкл Уэстон, Коуди Салливан, Брюс Нозик, Мэтт Уинстон, Дональд Фэйсон.
Описание: История Айдана Блума — актера, отца и мужа, который в свои 35 лет все еще пытается найти себя, цель своей жизни. Уча жизни двух своих детей, Айдан постепенно обнаруживает некоторые части себя, которые он не мог найти раньше…-Рейтинг
imdb.com: 7.0 (7 850)
kinopoisk.ru: 7.403 (11 645)
MPAA: - лицам до 17 лет обязательно присутствие взрослого-Сэмпл: http://multi-up.com/1007944-Качество видео: BDRip [Hotel.by.ya.bytj.zdesj.2014.x264.Blu-Ray.Remux.1080p.ExKinoRay.mkv]
Формат видео: AVI
Видео: XviD build 65, 720x304 (2.37:1), 23.976 fps, ~1573 kbps avg, 0.30 bit/pixel
Аудио: 48 kHz, AC3 Dolby Digital, 3/2 (L,C,R,l,r) + LFE ch, ~384 kbps avg (Dub)
-MediaInfo
Общее
Полное имя : D:\Wish.I.Was.Here.2014.Dub.BDRip.1,46Gb.XviD.AC3.avi
Формат : AVI
Формат/Информация : Audio Video Interleave
Размер файла : 1,46 Гбайт
Продолжительность : 1 ч. 46 м.
Общий поток : 1966 Кбит/сек
Название фильма : Wish I Was Here 2014
Режиссёр : Zach Braff
Дата записи : 22.10.2014
Программа кодирования : VirtualDubModRus 1.5.10.2 (build 2542/release)
Библиотека кодирования : VirtualDubMod build 2542/release
Правообладатель : ***
Примечание : MooN_WalkeR
Видео
Идентификатор : 0
Формат : MPEG-4 Visual
Профиль формата : Advanced Simple@L5
Параметр BVOP формата : 1
Параметр QPel формата : Нет
Параметр GMC формата : Без точки перехода
Параметр матрицы формата : Выборочная
Идентификатор кодека : XVID
Идентификатор кодека/Подсказка : XviD
Продолжительность : 1 ч. 46 м.
Битрейт : 1573 Кбит/сек
Ширина : 720 пикселей
Высота : 304 пикселя
Соотношение сторон : 2,35:1
Частота кадров : 23,976 кадра/сек
Цветовое пространство : YUV
Субдискретизация насыщенности : 4:2:0
Битовая глубина : 8 бит
Тип развёртки : Прогрессивная
Метод сжатия : С потерями
Бит/(Пиксели*Кадры) : 0.300
Размер потока : 1,17 Гбайт (80%)
Библиотека кодирования : XviD 65
Аудио
Идентификатор : 1
Формат : AC-3
Формат/Информация : Audio Coding 3
Расширение режима : CM (complete main)
Параметр Endianness формата : Big
Идентификатор кодека : 2000
Продолжительность : 1 ч. 46 м.
Вид битрейта : Постоянный
Битрейт : 384 Кбит/сек
Каналы : 6 каналов
Расположение каналов : Front: L C R, Side: L R, LFE
Частота : 48,0 КГц
Битовая глубина : 16 бит
Метод сжатия : С потерями
Размер потока : 293 Мбайт (20%)
Выравнивание : Разделение по промежуткам
Продолжительность промежутка : 42 мс. (1,00 видеокадр)
Время предзагрузки промежутка : 500 мс.
Заголовок : Dub
Скриншоты
Скачать

Скачать торрент!

Как скачивать? · Что такое торрент? · Рейтинг и ограничения

Сайт не распространяет и не хранит электронные версии произведений, а лишь предоставляет доступ к создаваемому пользователями каталогу ссылок на торрент-файлы, которые содержат только списки хеш-сумм

[Профиль] [ЛС]
Показать сообщения:    
Ответить на тему

Текущее время: Сегодня 18:17

Часовой пояс: GMT + 4



Вы не можете начинать темы
Вы не можете отвечать на сообщения
Вы не можете редактировать свои сообщения
Вы не можете удалять свои сообщения
Вы не можете голосовать в опросах
Вы не можете прикреплять файлы к сообщениям
Вы не можете скачивать файлы