Девдас / Devdas (Праматеш Чандра Баруа / Pramatesh Chandra Barua) [1936, Индия, Драма, DVDRip] VO (Nastia)+ Original + Sub Rus + Sub Eng

Ответить на тему
 
Автор Сообщение

user ®

Стаж: 12 лет

Сообщений: 15092

Пост Пост: #1 от 23-Окт-2014 08:40

[Цитировать]

Девдас / Devdas-- Страна: Индия
Жанр: Драма
Год выпуска: 1936
Продолжительность: 02:11:29
Перевод: Одноголосый закадровый
Перевод субтитров: Марина Кoмарова
Озвучка: Nastia
Cубтитры: Русские (на песни), Английские (хардсаб)
Оригинальная аудиодорожка: хинди--Режиссер: Праматеш Чандра Баруа / Pramatesh Chandra Barua--В ролях: Кундал Лал Сайгал, Джамуна Баруа, A.Шор, Чандрабати Деви, Нирмал Баннерджи, П. C.Баруа, Маноранджан Бхаттачарья, Бахари, K.C.Дей, Мр.Раджу, Бисванакт, Юсуф Аттиа, Кайлаш, Немо, Кидар Нат Шарма, Капур, Раджкумари, Ситара, Рамкумари, Хемналини, Сахана, Рошанара--Описание: Сын богатого землевладельца (заминдара) Нараяна Мухерджи, Девдас, влюбляется в Парвати, девушку из бедной соседской семьи, с которой он был знаком с детства. Девдас уезжает в Калькутту учиться в университете, обещая Парвати вернуться и жениться на ней. Вернувшись, он хочет взять её в жёны, однако его отец против такого брака, считая Парвати недостойной его сына. Между тем, отец Парвати устраивает её брак с человеком намного старше её. Хотя она любит Девдаса, Парвати подчиняется воле отца. Узнав об этом, Девдас начал пить, познакомился в Калькутте с куртизанкой Чандрамукхи, которая бросает свою профессию, чтобы помочь ему. Однако Девдас не может забыть Парвати. Понимая, его конец близок, он решает сдержать своё обещание и встретиться с Парвати. Девдас всю ночь едет домой, но приехав, умирает, так и не увидев любимую.--Доп. информация: Это версия фильма на хинди снятого на бенгальском языке в 1935 году. Это экранизация одноимённого романа Шарата Чандра Чаттопадхьяя (также известного как Сарат Чандра Чаттопадхаи).Фильм много раз был экранизирован в Индии на разных языках. Бимал Рой, который был оператором этого фильма, в 1955 году сам снял свою версию Девдаса с Дилипом Кумаром, которая стала пожалуй самой популярной.
Кундан Лал Сайгал (11 апреля 1904 - 18 января 1947 года) индийский актер и певец, который по праву считается первой суперзвездой в Болливуде .Кундан родился в Джамму, в современном индийском штате Джамму и Кашмир. Его предки были из города Джаландхара в Пенджабе. Его отец Амарчанд Сейгал работал у махараджи Пратапа Сингха. Именно махараджа услышав пение мальчика предсказал ему светлое будущее в искусстве пения. Ребенком он играл Ситу в «Ramlila», это мифическое произведение рассказывает об истории индуистского бога Рамы. Он получил первоначальное музыкальное обучение у святого суфи Юсуфа Салмана. Позже он использовал эти музыкальные навыки в своем искусство пения «гхазал» форм классической музыки. Сайгал бросил школу и работал в железнодорожной отрасли хронометристом, а затем в качестве секретаря в одной из контор, когда Б.Н. Сиркар, руководитель фильмостудии в Калькутте решил создать Новый театр и Сайгал решил поступить на его курсы. В Новом Театре, стиль его пения под влиянием ведущих музыкальных директоров студии, таких как Борал, Панкадж Маллик приобрел звучание. В качестве актера Сайгал снялся в его первом фильме был Mohabbat Ke Aansoo (1932), а затем в Chandidas в 1934 году и стал звездой хинди кино. Сама " царица мелодии " Лата Мангешкар говорила что она хотела выйти замуж за Сайгала когда увидела его работу в Chandidas. В 1935 г., Сайгал сыграл роль, которая во многом определила его дальнейшую карьеру это был Девдас. Его песни в фильме, «Balam Aaye Baso», «Mere Man Mein» и «Dukh ke Din Ab Beete Nahin» мгновенно стали популярны по всей стране. Голос Сайгала продолжал приносить свои плоды и в последующих фильмах, которые стали хитами того времени, как Didi (Bengali)/ President (Hindi) (1937), Saathi (Bengali)/ Street Singer (Hindi) (1938), Zindagi (1940). В 40-х годах, Сайгал переехал в Бомбей, где продолжает сниматся в кино. В это время при его участии созданы такие фильмы как Bhakt Surdas (1942) и Tansan (1943).Слава и популярность певца росла и укреплялась день за днем, но в личной жизни певца шла череда неудач, и он постепенно пристрастился к спиртному. Алкоголь стал нормой жизни для певца. Говорили, что он может петь только тогда, когда примет несколько грамм спиртного. Его здоровье начало давать сбои. Усилия родных и близких были бесполезны и в начале 1947 года Сайгал скончался в Джаландхаре.К сожалению в настоящее время нет никого из живых близких родственников Кундана Лала Сейгала. Его жена Аша умерла в 1971 году, сын Мохан в 1981 г., а дочерин Нина и Бина скончались ни так давно в 2001 г. (Нина) и в 2004 г. (Бина). Но его голос жив до сих пор, его можно слышать по утрам по радио на канале «Вся Индия». Голос Сайгала был настолько мелодичен, что его до сих пор боготворят такие популярные певцы как Лата Мангешкар, Мухаммад Рафи, Мукеш и Кишор Кумар. Сайгал за свою 15-летнюю карьеру снялся в 36 фильмах и спел около 200 песен. Даже сегодня имя Кундан Лал Сайгала ассоциируется с эпохой великих индийских фильмов 30-х и 40-х годов и его до сих пор считают непревзойденным золотым голосом.--Техническая работа с субтитрами и предоставленные материалы: larisa_k
Описание : Марина Кoмарова и larisa_k
Сведение звука: pca1962--Релиз-группа:
Сэмпл: http://multi-up.com/1007866
Качество видео: DVDRip
Формат видео: AVI
Видео: XviD, 512x384, 23.97 fps, 1073 kbps
Аудио: AC3, 48 kHz, 2.0 (stereo), 192 kbps (русский)
Аудио 2: AC3, 48 kHz, 2.0 (stereo), 192 kbps (хинди)
Формат субтитров: Русские (на песни) softsub (SRT), Английские (хардсаб)-
-
MediaInfo
=== Общие ===
Полное имя : Devdas.1936.DVDRip.XviD.pca1962.avi
Формат : AVI
Описание формата : Audio Video Interleave
Размер файла : 1.35 Гб
Длительность : 2ч 11мин
Общий битрейт : 1 472 кбит/сек
Название фильма : Devdas.1936
Director : pca1962
Жанр / стиль : Drama
Програмное обеспечение : VirtualDubMod 1.5.10.2 (build 2540/release)
Original source form/Name : Movie
=== Видео ===
ID (Идентификатор) : 0
Формат : MPEG-4 Visual
Профиль формата : Advanced Simple@L5
Параметр 'BVOP' : 1
Параметр 'QPel' : Нет
Параметр 'GMC' : No warppoints
Параметр 'Matrix' : Default (H.263)
Идентификатор кодека : XVID
Подпись кодека : XviD
Длительность : 2ч 11мин
Битрейт : 1073 кбит/сек
Ширина кадра : 512 пикселей
Высота кадра : 384 пикселей
Соотношение сторон : 4:3
Частота кадров : 23.976 кадров/сек
Цветовое пространство : YUV
Субдискретизация насыщенности : 4:2:0
Глубина (разрядность) : 8 bits
Тип развертки : Прогрессивная
Режим сжатия : С потерями
Бит/(пиксель*кадр) : 0.228
Размер потока : 1 009 Мб (73%)
Кодирующая библиотека : XviD 1.2.1 (UTC 2008-12-04)
=== Аудио 1 ===
ID (Идентификатор) : 1
Формат : AC-3
Описание формата : Audio Coding 3
Mode extension : CM (complete main)
Идентификатор кодека : 2000
Длительность : 2ч 11мин
Тип битрейта : Постоянный
Битрейт : 192 кбит/сек
Канал(ы) : 2 каналов
Расположение каналов : Front: L R
Частота дискретизации : 48.0 кГц
Глубина (разрядность) : 16 bits
Режим сжатия : С потерями
Размер потока : 181 Мб (13%)
Расположение потока : Split accross interleaves
Период чередования : 42 мс (1.00 video frame)
Предварительная загрузка : 500 мс
=== Аудио 2 ===
ID (Идентификатор) : 2
Формат : AC-3
Описание формата : Audio Coding 3
Mode extension : CM (complete main)
Идентификатор кодека : 2000
Длительность : 2ч 11мин
Тип битрейта : Постоянный
Битрейт : 192 кбит/сек
Канал(ы) : 2 каналов
Расположение каналов : Front: L R
Частота дискретизации : 48.0 кГц
Глубина (разрядность) : 16 bits
Режим сжатия : С потерями
Размер потока : 181 Мб (13%)
Расположение потока : Split accross interleaves
Период чередования : 42 мс (1.00 video frame)
Предварительная загрузка : 500 мс

-
-Скриншот c названием фильма Скриншоты
Скачать

Скачать торрент! Девдас / Devdas (Праматеш Чандра Баруа / Pramatesh Chandra Barua) [1936, Индия, Драма, DVDRip] VO (Nastia)+ Original + Sub Rus + Sub Eng

Как скачивать? · Что такое торрент? · Рейтинг и ограничения

Сайт не распространяет и не хранит электронные версии произведений, а лишь предоставляет доступ к создаваемому пользователями каталогу ссылок на торрент-файлы, которые содержат только списки хеш-сумм

[Профиль] [ЛС]
Показать сообщения:    
Ответить на тему

Текущее время: Сегодня 02:52

Часовой пояс: GMT + 4



Вы не можете начинать темы
Вы не можете отвечать на сообщения
Вы не можете редактировать свои сообщения
Вы не можете удалять свои сообщения
Вы не можете голосовать в опросах
Вы не можете прикреплять файлы к сообщениям
Вы не можете скачивать файлы