Военные потери / Casualties of War (Брайан Де Пальма / Brian De Palma) [1989, США, драма, военный, история, BDRip 1080p] DVO (Другое кино) + AVO (Ю. Живов) + Sub Rus, Eng + Original Eng

Ответить на тему
 
Автор Сообщение

user ®

Стаж: 7 лет 7 месяцев

Сообщений: 20008

Пост Пост: #1 от 23-Окт-2014 05:30

[Цитировать]

Военные потери / Casualties of War
Страна: США
Студия: Columbia Pictures Corporation
Жанр: драма, военный, история
Год выпуска: 1989
Продолжительность: 01:54:57
Перевод: Профессиональный (двухголосый закадровый) Другое кино
Перевод 2: Авторский (одноголосый закадровый) Ю. Живов
Cубтитры: русские, английские
Оригинальная аудиодорожка: английский
Режиссер: Брайан Де Пальма / Brian De Palma
В ролях: Майкл Дж. Фокс, Шон Пенн, Дон Харви, Джон Си Райли, Джон Легуизамо, Тхюй Тху Ле, Винг Реймз, Дейл Дай, Джек Гуолтни, Эрик Кинг
Описание: Фильм основан на реальной истории, случившейся со взводом американских солдат во время войны во Вьетнаме. Рядовой Эрикссон становится свидетелем ужасного изнасилования и убийства вьетнамской девушки во время боевой операции.
Отстаивая свою позицию, он вынужден противостоять всему взводу и его командиру — сержанту Месерву — человеку, давно забывшему о таком чувстве, как сострадание…
Кинопоиск|Imdb|Сэмпл
Тип релиза: BDRip 1080p
Контейнер: MKV
Видео: MPEG4 Video (H264) 1920x800 23.976fps 15.2 Mbps
Аудио: Русский DTS / 6 ch / 48.0 KHz / 1 509 Kbps / Другое кино
Аудио 2: Русский AC-3 / 2 ch / 48.0 KHz / 192 Kbps / Ю. Живов
Аудио 3: Английский DTS / 6 ch / 48.0 KHz / 1 509 Kbps
Формат субтитров: softsub (SRT)

MediaInfo
General
Unique ID : 178385688478817840913405849438510998665 (0x8633D57B11EA1CFB87B902B278616489)
Complete name : D:\Casualties.of.War.1989.1080p.BDRip.DTS.x264.mkv
Format : Matroska
Format version : Version 4 / Version 2
File size : 15.1 GiB
Duration : 1h 54mn
Overall bit rate : 18.8 Mbps
Movie name : Casualties of War 1989 1080p BDRip DTS x264
Encoded date : UTC 2014-10-20 06:58:12
Writing application : mkvmerge v6.9.1 ('Blue Panther') 64bit built on Apr 18 2014 18:23:38
Writing library : libebml v1.3.0 + libmatroska v1.4.1
Video
ID : 1
Format : AVC
Format/Info : Advanced Video Codec
Format profile : High@L4.1
Format settings, CABAC : Yes
Format settings, ReFrames : 5 frames
Codec ID : V_MPEG4/ISO/AVC
Duration : 1h 54mn
Bit rate : 15.2 Mbps
Width : 1 920 pixels
Height : 800 pixels
Display aspect ratio : 2.40:1
Frame rate mode : Constant
Frame rate : 23.976 fps
Color space : YUV
Chroma subsampling : 4:2:0
Bit depth : 8 bits
Scan type : Progressive
Bits/(Pixel*Frame) : 0.414
Stream size : 12.2 GiB (81%)
Writing library : x264 core 142 r2431kMod ac76440
Encoding settings : cabac=1 / ref=5 / deblock=1:-3:-3 / analyse=0x3:0x133 / me=umh / subme=11 / psy=1 / fade_compensate=0.00 / psy_rd=1.02:0.00 / mixed_ref=1 / me_range=24 / chroma_me=1 / trellis=2 / 8x8dct=1 / cqm=0 / deadzone=21,11 / fast_pskip=0 / chroma_qp_offset=-2 / threads=24 / lookahead_threads=6 / sliced_threads=0 / nr=0 / decimate=0 / interlaced=0 / bluray_compat=0 / constrained_intra=0 / fgo=0 / bframes=10 / b_pyramid=2 / b_adapt=2 / b_bias=0 / direct=3 / weightb=1 / open_gop=0 / weightp=2 / keyint=250 / keyint_min=23 / scenecut=40 / intra_refresh=0 / rc_lookahead=60 / rc=crf / mbtree=0 / crf=16.3000 / qcomp=0.60 / qpmin=0 / qpmax=69 / qpstep=4 / vbv_maxrate=50000 / vbv_bufsize=62500 / crf_max=0.0 / nal_hrd=none / filler=0 / ip_ratio=1.20 / pb_ratio=1.20 / aq=3:0.75 / zones=8427,8456,crf=15.5/8524,8550,crf=15.5/8560,8579,crf=15.5/8600,8624,crf=15/8655,8693,crf=15/8709,8736,crf=15.5/154290,163366,crf=20
Language : English
Default : Yes
Forced : No
Audio #1
ID : 2
Format : DTS
Format/Info : Digital Theater Systems
Mode : 16
Format settings, Endianness : Big
Codec ID : A_DTS
Duration : 1h 54mn
Bit rate mode : Constant
Bit rate : 1 509 Kbps
Channel count : 6 channels
Channel positions : Front: L C R, Side: L R, LFE
Sampling rate : 48.0 KHz
Bit depth : 16 bits
Compression mode : Lossy
Stream size : 1.21 GiB (8%)
Title : DVO (Drugoe kino)
Language : Russian
Default : Yes
Forced : No
Audio #2
ID : 3
Format : AC-3
Format/Info : Audio Coding 3
Mode extension : CM (complete main)
Format settings, Endianness : Big
Codec ID : A_AC3
Duration : 1h 54mn
Bit rate mode : Constant
Bit rate : 192 Kbps
Channel count : 2 channels
Channel positions : Front: L R
Sampling rate : 48.0 KHz
Bit depth : 16 bits
Compression mode : Lossy
Stream size : 158 MiB (1%)
Title : AVO (Jivov)
Language : Russian
Default : No
Forced : No
Audio #3
ID : 4
Format : DTS
Format/Info : Digital Theater Systems
Mode : 16
Format settings, Endianness : Big
Codec ID : A_DTS
Duration : 1h 54mn
Bit rate mode : Constant
Bit rate : 1 509 Kbps
Channel count : 6 channels
Channel positions : Front: L C R, Side: L R, LFE
Sampling rate : 48.0 KHz
Bit depth : 24 bits
Compression mode : Lossy
Stream size : 1.21 GiB (8%)
Language : English
Default : No
Forced : No
Text #1
ID : 5
Format : UTF-8
Codec ID : S_TEXT/UTF8
Codec ID/Info : UTF-8 Plain Text
Language : Russian
Default : No
Forced : No
Text #2
ID : 6
Format : UTF-8
Codec ID : S_TEXT/UTF8
Codec ID/Info : UTF-8 Plain Text
Language : English
Default : No
Forced : No
Menu
00:00:00.000 : en:Chapter 01
00:07:43.046 : en:Chapter 02
00:14:29.911 : en:Chapter 03
00:21:09.643 : en:Chapter 04
00:29:11.667 : en:Chapter 05
00:35:42.432 : en:Chapter 06
00:42:07.233 : en:Chapter 07
00:53:08.018 : en:Chapter 08
00:56:53.452 : en:Chapter 09
01:03:17.252 : en:Chapter 10
01:11:28.951 : en:Chapter 11
01:17:04.036 : en:Chapter 12
01:23:05.814 : en:Chapter 13
01:30:22.334 : en:Chapter 14
01:38:19.519 : en:Chapter 15
01:43:58.232 : en:Chapter 16
Скриншоты Время раздачи с 6.00 до 15.00 по мск
Скачать

Скачать торрент!

Как скачивать? · Что такое торрент? · Рейтинг и ограничения

Сайт не распространяет и не хранит электронные версии произведений, а лишь предоставляет доступ к создаваемому пользователями каталогу ссылок на торрент-файлы, которые содержат только списки хеш-сумм

[Профиль] [ЛС]
Показать сообщения:    
Ответить на тему

Текущее время: Сегодня 05:52

Часовой пояс: GMT + 4



Вы не можете начинать темы
Вы не можете отвечать на сообщения
Вы не можете редактировать свои сообщения
Вы не можете удалять свои сообщения
Вы не можете голосовать в опросах
Вы не можете прикреплять файлы к сообщениям
Вы не можете скачивать файлы