Пришельцы / Посетители / Extraterrestrial (Колин Минихан / Colin Minihan) [2014, Канада, ужасы, фантастика, HDRip] VO (datynet)

Ответить на тему
 
Автор Сообщение

user ®

Стаж: 7 лет 7 месяцев

Сообщений: 20008

Пост Пост: #1 от 23-Окт-2014 05:30

[Цитировать]

Пришельцы / Extraterrestrial- -Страна: Канада / Abduction Films, Manis Film, Pink Buffalo Films, Twin Engine Films, Vicarious Entertainment
Жанр: ужасы, фантастика
Год выпуска: 2014
Продолжительность: 01:40:40-Перевод: Одноголосый закадровый [datynet]
Cубтитры: нет
Режиссер: Колин Минихан / Colin Minihan-В ролях: Бриттани Аллен, Фредди Строма, Мелани Папалиа, Джесси Мосс, Аня Савчич, Шон Роджерсон, Эмили Перкинс, Майк Ковач, Йен Браун, Фред Китинг-Описание: Группа друзей решает провести выходные в хижине в лесу, где сталкивается с пришельцами…-Сэмпл: http://multi-up.com/1007799-Качество видео: HDRip(исходник неизвестен)
Формат видео: AVI
Видео: 720x304 (2.37:1), 23.976 fps, XviD MPEG-4 ~1597 kbps avg, 0.30 bit/pixel
Аудио: 44.100 kHz, MPEG Layer 3, 2 ch, ~192.00 kbps avg
MediaInfo
D:\Torrents\Extraterrestrial.2014.HDRip.avi
General
Complete name : D:\Torrents\Extraterrestrial.2014.HDRip.avi
Format : AVI
Format/Info : Audio Video Interleave
File size : 1.27 GiB
Duration : 1h 40mn
Overall bit rate : 1 799 Kbps
Writing application : VirtualDubMod 1.5.10.2 (build 2542/release)
Writing library : VirtualDub build 34753/release
Video #0
ID : 0
Format : MPEG-4 Visual
Format profile : Advanced Simple@L5
Format settings, BVOP : 2
Format settings, QPel : No
Format settings, GMC : No warppoints
Format settings, Matrix : Default (H.263)
Muxing mode : Packed bitstream
Codec ID : XVID
Codec ID/Hint : XviD
Duration : 1h 40mn
Bit rate : 1 598 Kbps
Width : 720 pixels
Height : 304 pixels
Display aspect ratio : 2.35:1
Frame rate : 23.976 fps
Color space : YUV
Chroma subsampling : 4:2:0
Bit depth : 8 bits
Scan type : Progressive
Compression mode : Lossy
Bits/(Pixel*Frame) : 0.304
Stream size : 1.12 GiB (89%)
Writing library : XviD 64
Audio #1
ID : 1
Format : MPEG Audio
Format version : Version 1
Format profile : Layer 3
Codec ID : 55
Codec ID/Hint : MP3
Duration : 1h 40mn
Bit rate mode : Constant
Bit rate : 192 Kbps
Channel count : 2 channels
Sampling rate : 44.1 KHz
Compression mode : Lossy
Stream size : 138 MiB (11%)
Alignment : Split accross interleaves
Interleave, duration : 42 ms (1.00 video frame)
Interleave, preload duration : 500 ms
Скриншот c названием фильма Скриншоты
Скачать

Скачать торрент!

Как скачивать? · Что такое торрент? · Рейтинг и ограничения

Сайт не распространяет и не хранит электронные версии произведений, а лишь предоставляет доступ к создаваемому пользователями каталогу ссылок на торрент-файлы, которые содержат только списки хеш-сумм

[Профиль] [ЛС]
Показать сообщения:    
Ответить на тему

Текущее время: Сегодня 02:08

Часовой пояс: GMT + 4



Вы не можете начинать темы
Вы не можете отвечать на сообщения
Вы не можете редактировать свои сообщения
Вы не можете удалять свои сообщения
Вы не можете голосовать в опросах
Вы не можете прикреплять файлы к сообщениям
Вы не можете скачивать файлы