Одна квадратная миля / Миля за 4 минуты / One Square Mile / 4 Minute Mile (Шарль-Оливье Мишо / Charles-Olivier Michaud) [2014, США, Спортивная драма, WEB-DLRip] VO

Ответить на тему
 
Автор Сообщение

user ®

Стаж: 7 лет 7 месяцев

Сообщений: 20008

Пост Пост: #1 от 23-Окт-2014 05:30

[Цитировать]

Одна квадратная миля / Миля за 4 минуты / One Square Mile / 4 Minute Mile«The hardest race is against yourself»- Страна: США
Жанр: Спортивная драма
Год выпуска: 2014
Продолжительность: 01:36:13-Перевод: Одноголосый закадровый [ViruseProject]
Cубтитры: нет-Режиссер: Шарль-Оливье Мишо / Charles-Olivier Michaud-В ролях: Келли Блац, Ричард Дженкинс, Кэм Жиганде, Риз Койро, Ким Бейсингер, Блэр Фаулер, Дилан Арнольд, Аарон Вашингтон-Описание: Дрю Джейкобс живет на окраине большого города. Его мечта: вырваться из бедности. Его мир: затюканная жизнью мать и брат-уголовник. Его единственная надежда: выиграть чемпионат по бегу и получить стипендию на обучение в престижном университете.-Sample | IMDB | КиноПоиск-Тип релиза: WEB-DLRip [исх. WEB-DL 720p]
Формат видео: AVI-Видео: 720x304 (2.37:1), 23.976 fps, XviD build 50, 1975 kbps avg, 0.38 bit/pixel
Аудио: 48 kHz, MPEG Layer 3, 2 ch, 192.00 kbps avg [Russian_VO]-Релиз группы:[url=http://***/forum/viewtopic.php?t=1677970] [/url]-MediaInfo
General
Complete name : D:\Мои релизы\One Square Mile_WEB-DLRip_RG_All_Films.avi
Format : AVI
Format/Info : Audio Video Interleave
File size : 1.46 GiB
Duration : 1h 36mn
Overall bit rate : 2 177 Kbps
Writing application : VirtualDubMod 1.5.10.3 | www.virtualdub-fr.org || (build 2550/release)
Writing library : VirtualDubMod build 2550/release
Video
ID : 0
Format : MPEG-4 Visual
Format profile : Advanced Simple@L5
Format settings, BVOP : Yes
Format settings, QPel : No
Format settings, GMC : No warppoints
Format settings, Matrix : Custom
Codec ID : XVID
Codec ID/Hint : XviD
Duration : 1h 36mn
Bit rate : 1 976 Kbps
Width : 720 pixels
Height : 304 pixels
Display aspect ratio : 2.35:1
Frame rate : 23.976 fps
Color space : YUV
Chroma subsampling : 4:2:0
Bit depth : 8 bits
Scan type : Progressive
Compression mode : Lossy
Bits/(Pixel*Frame) : 0.376
Stream size : 1.33 GiB (91%)
Writing library : XviD 1.2.1 (UTC 2008-12-04)
Audio
ID : 1
Format : MPEG Audio
Format version : Version 1
Format profile : Layer 3
Mode : Joint stereo
Mode extension : MS Stereo
Codec ID : 55
Codec ID/Hint : MP3
Duration : 1h 36mn
Bit rate mode : Constant
Bit rate : 192 Kbps
Channel(s) : 2 channels
Sampling rate : 48.0 KHz
Compression mode : Lossy
Stream size : 132 MiB (9%)
Alignment : Aligned on interleaves
Interleave, duration : 42 ms (1.00 video frame)
Interleave, preload duration : 504 ms
Скриншоты
Скачать

Скачать торрент!

Как скачивать? · Что такое торрент? · Рейтинг и ограничения

Сайт не распространяет и не хранит электронные версии произведений, а лишь предоставляет доступ к создаваемому пользователями каталогу ссылок на торрент-файлы, которые содержат только списки хеш-сумм

[Профиль] [ЛС]
Показать сообщения:    
Ответить на тему

Текущее время: Сегодня 21:53

Часовой пояс: GMT + 4



Вы не можете начинать темы
Вы не можете отвечать на сообщения
Вы не можете редактировать свои сообщения
Вы не можете удалять свои сообщения
Вы не можете голосовать в опросах
Вы не можете прикреплять файлы к сообщениям
Вы не можете скачивать файлы