Камень / The Stone (Чо Сарэ / Cho Se-rae) [2013, Корея, Драма, DVDRip] VO (SATKUR)

Ответить на тему
 
Автор Сообщение

user ®

Стаж: 13 лет

Сообщений: 15071

Пост Пост: #1 от 22-Окт-2014 19:25

[Цитировать]

Камень / The Stone
Страна: Корея
Жанр: Драма
Год выпуска: 2013
Продолжительность: 1:49:52
Перевод: Одноголосый закадровый SATKUR
Cубтитры: нет
Оригинальная аудиодорожка: Корейский
Режиссер: Чо Сарэ / Cho Se-rae
В ролях: Ким Ройха (Босс мафии) — лучший актер Кореи 2001 года, Пак Вонсан (Ингуль, правая рука босса мафии) — известный корейский актер, снимался в более чем в 50 фильмах и сериалах, Чо Донгин (Минсу) — начинающий актер, сыграл настолько блистательно, что сразу же был приглашен легендарным Ким Гидуком, на одну из ролей в его новом фильме «Один на один» (2014)
Описание: Фильм о жизни корейской мафии. Сюжет построен вокруг взаимоотношений шулеров, профессионально играющих на большие ставки, только не в карты, а в настольную игру Го. Что-то среднее между Крестным отцом и «Каталой» с Валерием Гаркалиным
Доп. информация: Озвучено по субтитрам Александра Динерштейнома - одним из сильнейших мастеров Го Европы, который и сам в свое время проходил 5-летнюю стажировку в Корее, а также играл в Го на деньги в местных клубах.
Сэмпл: http://multi-up.com/1007802
Качество видео: DVDRip
Формат видео: AVI
Видео: 720x304 (2,35:1), 23,976 fps, XviD 1674 kbps avg, 0.319 bit/pixel
Аудио 1: 48 kHz, AC3 Dolby Digital, 2/0 (L,R) ch, ~192.00 kbps avg - русский
Аудио 2: 48 kHz, AC3 Dolby Digital, 2/0 (L,R) ch, ~192.00 kbps avg - корейский
MediaInfo
Общее
Полное имя : F:\FILMY\FILM-2014\Disk-55\The.Stone.2013.Kor.[vo.satkur+kor].AC3.Rus\The.Stone.2013.Kor.[vo.satkur+kor].AC3.Rus.avi
Формат : AVI
Формат/Информация : Audio Video Interleave
Размер файла : 1,59 Гбайт
Продолжительность : 1 ч. 49 м.
Общий поток : 2073 Кбит/сек
Программа кодирования : VirtualDubModRus 1.5.10.2 (build 2542/release)
Библиотека кодирования : VirtualDubMod build 2542/release
Видео
Идентификатор : 0
Формат : MPEG-4 Visual
Профиль формата : Simple@L1
Параметр BVOP формата : Нет
Параметр QPel формата : Нет
Параметр GMC формата : Без точки перехода
Параметр матрицы формата : Default (H.263)
Идентификатор кодека : XVID
Идентификатор кодека/Подсказка : XviD
Продолжительность : 1 ч. 49 м.
Битрейт : 1674 Кбит/сек
Ширина : 720 пикселей
Высота : 304 пикселя
Соотношение сторон : 2,35:1
Частота кадров : 23,976 кадра/сек
Цветовое пространство : YUV
Субдискретизация насыщенности : 4:2:0
Битовая глубина : 8 бит
Тип развёртки : Прогрессивная
Метод сжатия : С потерями
Бит/(Пиксели*Кадры) : 0.319
Размер потока : 1,28 Гбайт (81%)
Библиотека кодирования : Lavc52.84.0
Аудио #1
Идентификатор : 1
Формат : AC-3
Формат/Информация : Audio Coding 3
Расширение режима : CM (complete main)
Параметр Endianness формата : Big
Идентификатор кодека : 2000
Продолжительность : 1 ч. 49 м.
Вид битрейта : Постоянный
Битрейт : 192 Кбит/сек
Каналы : 2 канала
Расположение каналов : Front: L R
Частота : 48,0 КГц
Битовая глубина : 16 бит
Метод сжатия : С потерями
Размер потока : 151 Мбайт (9%)
Выравнивание : Разделение по промежуткам
Продолжительность промежутка : 42 мс. (1,00 видеокадр)
Время предзагрузки промежутка : 500 мс.
Аудио #2
Идентификатор : 2
Формат : AC-3
Формат/Информация : Audio Coding 3
Расширение режима : CM (complete main)
Параметр Endianness формата : Big
Идентификатор кодека : 2000
Продолжительность : 1 ч. 49 м.
Вид битрейта : Постоянный
Битрейт : 192 Кбит/сек
Каналы : 2 канала
Расположение каналов : Front: L R
Частота : 48,0 КГц
Битовая глубина : 16 бит
Метод сжатия : С потерями
Размер потока : 151 Мбайт (9%)
Выравнивание : Разделение по промежуткам
Продолжительность промежутка : 42 мс. (1,00 видеокадр)
Время предзагрузки промежутка : 500 мс.
Скриншот c названием фильма Скриншоты
Скачать

Скачать торрент! Камень / The Stone (Чо Сарэ / Cho Se-rae) [2013, Корея, Драма, DVDRip] VO (SATKUR)

Как скачивать? · Что такое торрент? · Рейтинг и ограничения

Сайт не распространяет и не хранит электронные версии произведений, а лишь предоставляет доступ к создаваемому пользователями каталогу ссылок на торрент-файлы, которые содержат только списки хеш-сумм

[Профиль] [ЛС]
Показать сообщения:    
Ответить на тему

Текущее время: Сегодня 17:40

Часовой пояс: GMT + 4



Вы не можете начинать темы
Вы не можете отвечать на сообщения
Вы не можете редактировать свои сообщения
Вы не можете удалять свои сообщения
Вы не можете голосовать в опросах
Вы не можете прикреплять файлы к сообщениям
Вы не можете скачивать файлы