Чужая война (Александр Черняев) [2014, Россия, боевик, драма, военный, DVDRip] DVO (Группа "Диапазон")

Ответить на тему
 
Автор Сообщение

user ®

Стаж: 7 лет 7 месяцев

Сообщений: 20008

Пост Пост: #1 от 22-Окт-2014 16:15

[Цитировать]

Чужая война / The Soldier - Unter falscher Flagge
Страна: Россия
Жанр: боевик, драма, военный
Год выпуска: 2014
Продолжительность: 01:25:11
Перевод: Любительский (двухголосый закадровый) Группа "Диапазон"
Cубтитры: нет
Оригинальная аудиодорожка: нет
Режиссер: Александр Черняев / Aleksandr Chernyaev
В ролях: Вячеслав Крикунов
Артем Ткаченко
Александр Самойленко
Валерий Соловьев
Александр Фисенко
Амаду Мамадаков
Владислав Демин
Никита Грибанов
Николай Мачульский
Михаил Тарабукин
Описание: Долго думал, куда выложить эту раздачу: то ли в "Наше кино", то ли в "Зарубежное кино". С одной стороны, фильм снят российской кинокомпанией "НТВ-кино". С другой стороны, в России он ни в каком качестве не появлялся: ни в прокате, ни на ТВ, ни на DVD. А на днях появился на DVD в Германии в немецком дубляже. Предлагаемая версия - русский закадровый перевод немецкого варианта. Почему его в России проигнорировали, непонятно. История "русского Рэмбо" офицера ГРУ Павла Молчанова о его участии в тайных операциях во время вьетнамской войны у нас тоже, наверное, многих бы заинтересовала.
Доп. информация: http://www.imdb.com/title/tt3959662/
http://www.kinopoisk.ru/film/647464/
Перевод фильма: kon2011
Особая благодарность за оперативное озвучивание фильма - группе "Диапазон".
Сэмпл: http://multi-up.com/1007781
Качество видео: DVDRip
Формат видео: MP4
Видео: AVC, 1018kbps, 25.000fps, 720x304, 0,189bit/pix
Аудио: 44,1KHz, 192kbps, Layer 3, 2ch
MediaInfo
Общее
Полное имя : F:\Чужая Война Солдат the soldier RUS.mp4
Формат : MPEG-4
Профиль формата : Base Media / Version 2
Идентификатор кодека : mp42
Размер файла : 739 Мбайт
Продолжительность : 1 ч. 25 м.
Общий поток : 1214 Кбит/сек
Дата кодирования : UTC 2014-10-21 16:05:02
Дата пометки : UTC 2014-10-21 16:07:51
Видео
Идентификатор : 1
Формат : AVC
Формат/Информация : Advanced Video Codec
Профиль формата : High@L3.1
Параметр CABAC формата : Да
Параметр ReFrames формата : 5 кадров
Идентификатор кодека : avc1
Идентификатор кодека/Информация : Advanced Video Coding
Продолжительность : 1 ч. 25 м.
Duration_FirstFrame : 120 мс.
Вид битрейта : Переменный
Битрейт : 1018 Кбит/сек
Ширина : 720 пикселей
Высота : 304 пикселя
Соотношение сторон : 2,35:1
Режим частоты кадров : Постоянный
Частота кадров : 25,000 кадров/сек
Цветовое пространство : YUV
Субдискретизация насыщенности : 4:2:0
Битовая глубина : 8 бит
Тип развёртки : Прогрессивная
Бит/(Пиксели*Кадры) : 0.186
Размер потока : 620 Мбайт (84%)
Библиотека кодирования : x264 core 142 r2479 dd79a61
Настройки программы : cabac=1 / ref=5 / deblock=1:-2:-2 / analyse=0x3:0x133 / me=umh / subme=7 / psy=1 / psy_rd=1.00:0.15 / mixed_ref=1 / me_range=16 / chroma_me=1 / trellis=1 / 8x8dct=1 / cqm=0 / deadzone=21,11 / fast_pskip=0 / chroma_qp_offset=-3 / threads=18 / lookahead_threads=2 / sliced_threads=0 / nr=0 / decimate=1 / interlaced=0 / bluray_compat=0 / constrained_intra=0 / bframes=3 / b_pyramid=2 / b_adapt=1 / b_bias=0 / direct=3 / weightb=1 / open_gop=0 / weightp=1 / keyint=250 / keyint_min=25 / scenecut=40 / intra_refresh=0 / rc_lookahead=40 / rc=crf / mbtree=1 / crf=19.0 / qcomp=0.60 / qpmin=10 / qpmax=69 / qpstep=4 / ip_ratio=1.40 / aq=1:1.00
Дата кодирования : UTC 2014-10-21 16:05:02
Дата пометки : UTC 2014-10-21 16:07:51
Аудио
Идентификатор : 2
Формат : MPEG Audio
Версия формата : Version 1
Профиль формата : Layer 3
Идентификатор кодека : 69
Продолжительность : 1 ч. 25 м.
Вид битрейта : Постоянный
Битрейт : 192 Кбит/сек
Каналы : 2 канала
Частота : 44,1 КГц
Метод сжатия : С потерями
Размер потока : 117 Мбайт (16%)
Библиотека кодирования : LAME3.98.4
Язык : Russian
Дата кодирования : UTC 2014-10-21 16:05:02
Дата пометки : UTC 2014-10-21 16:07:51
Скриншот c названием фильма Скриншоты
Скачать

Скачать торрент!

Как скачивать? · Что такое торрент? · Рейтинг и ограничения

Сайт не распространяет и не хранит электронные версии произведений, а лишь предоставляет доступ к создаваемому пользователями каталогу ссылок на торрент-файлы, которые содержат только списки хеш-сумм

[Профиль] [ЛС]
Показать сообщения:    
Ответить на тему

Текущее время: Сегодня 06:30

Часовой пояс: GMT + 4



Вы не можете начинать темы
Вы не можете отвечать на сообщения
Вы не можете редактировать свои сообщения
Вы не можете удалять свои сообщения
Вы не можете голосовать в опросах
Вы не можете прикреплять файлы к сообщениям
Вы не можете скачивать файлы