Бухта спасения / Deliverance Creek (Джон Эмиел / Jon Amiel) [2014, США, Драма, WEB-Rip] VO + Sub Rus + Original Eng

Ответить на тему
 
Автор Сообщение

user ®

Стаж: 7 лет 7 месяцев

Сообщений: 20008

Пост Пост: #1 от 22-Окт-2014 16:15

[Цитировать]

Бухта спасения / Deliverance Creek
Страна: США
Жанр: Драма
Год выпуска: 2014
Продолжительность: 01:27:07
Перевод: Одноголосый закадровый
Cубтитры: русские
Оригинальная аудиодорожка: английский
Режиссер: Джон Эмиел / Jon Amiel
В ролях: Лорен Эмброуз, Уэс Рэмси, Кристофер Бакус, Райли Смит, Джюда Льюис (Кэйлеб), Сэвьер Белл (Эйбнер), Кейтлин Кастер, Яани Кинг, Джоэль Джонстоун, Кэтерин Уиллис, Бэрри Табб, Тишуан Скотт и другие актеры.
Описание: В разгар Гражданской войны овдовевшая мать троих детей Белль Гэтлин Барлоу пытается защитить землю своей семьи всеми возможными способами. Но земля - не самое дорогое, что можно потерять в отчаянной борьбе за жизнь. Движимая желанием мстить, Белль решается на отчаянный шаг...
Сэмпл: http://multi-up.com/1007716
Качество видео: WEB-Rip
Формат видео: AVI
Видео:700x400 (1.75:1), 23.976 fps, XviD build 63 ~1741 kbps avg, 0.26 bit/pixel
Аудио 1: 48 kHz, MPEG Layer 3, 2 ch, ~192.00 kbps avg(Русский)
Аудио 2: 48 kHz, MPEG Layer 3, 2 ch, ~192.00 kbps avg(Английский)
Формат субтитров: hardsub (неотключаемые)
ТОРРЕНТ ФАЙЛ ПЕРЕЗАЛИТ, В СВЯЗИ С ИСПРАВЛЕНИЕМ СИНХРОНИЗАЦИИ АУДИОДОРОЖЕК. ИЗВИНИТЕ, КТО УЖЕ СКАЧАЛ БРАКОВАННЫЙ
MediaInfo
Общее
Полное имя : F:\С моей озвучкой\Бухта спасения(NEW).avi
Формат : AVI
Формат/Информация : Audio Video Interleave
Размер файла : 1,30 Гбайт
Продолжительность : 1 ч. 27 м.
Общий поток : 2140 Кбит/сек
Программа кодирования : VirtualDubModRus 1.5.10.2 (build 2542/release)
Библиотека кодирования : VirtualDubMod build 2542/release
Видео
Идентификатор : 0
Формат : xvid
Идентификатор кодека : xvid
Продолжительность : 1 ч. 27 м.
Битрейт : 1742 Кбит/сек
Ширина : 700 пикселей
Высота : 400 пикселей
Соотношение сторон : 16:9
Частота кадров : 23,976 кадра/сек
Бит/(Пиксели*Кадры) : 0.260
Размер потока : 1,06 Гбайт (81%)
Аудио #1
Идентификатор : 1
Формат : MPEG Audio
Версия формата : Version 1
Профиль формата : Layer 3
Режим : Joint stereo
Расширение режима : MS Stereo
Идентификатор кодека : 55
Идентификатор кодека/Подсказка : MP3
Продолжительность : 1 ч. 27 м.
Вид битрейта : Постоянный
Битрейт : 192 Кбит/сек
Каналы : 2 канала
Частота : 48,0 КГц
Метод сжатия : С потерями
Размер потока : 120 Мбайт (9%)
Выравнивание : Соединение по промежуткам
Продолжительность промежутка : 42 мс. (1,00 видеокадр)
Время предзагрузки промежутка : 504 мс.
Библиотека кодирования : LAME3.96
Аудио #2
Идентификатор : 2
Формат : MPEG Audio
Версия формата : Version 1
Профиль формата : Layer 3
Режим : Joint stereo
Расширение режима : MS Stereo
Идентификатор кодека : 55
Идентификатор кодека/Подсказка : MP3
Продолжительность : 1 ч. 27 м.
Вид битрейта : Постоянный
Битрейт : 192 Кбит/сек
Каналы : 2 канала
Частота : 48,0 КГц
Метод сжатия : С потерями
Размер потока : 120 Мбайт (9%)
Выравнивание : Соединение по промежуткам
Продолжительность промежутка : 42 мс. (1,00 видеокадр)
Время предзагрузки промежутка : 504 мс.
Библиотека кодирования : LAME3.98
Скриншоты
Скачать

Скачать торрент!

Как скачивать? · Что такое торрент? · Рейтинг и ограничения

Сайт не распространяет и не хранит электронные версии произведений, а лишь предоставляет доступ к создаваемому пользователями каталогу ссылок на торрент-файлы, которые содержат только списки хеш-сумм

[Профиль] [ЛС]
Показать сообщения:    
Ответить на тему

Текущее время: Сегодня 00:42

Часовой пояс: GMT + 4



Вы не можете начинать темы
Вы не можете отвечать на сообщения
Вы не можете редактировать свои сообщения
Вы не можете удалять свои сообщения
Вы не можете голосовать в опросах
Вы не можете прикреплять файлы к сообщениям
Вы не можете скачивать файлы