Геракл / Hercules (Бретт Рэтнер / Brett Ratner) [2014, боевик, приключения, фэнтези, WEB-DLRip] DUB [звук с TS]

Ответить на тему
 
Автор Сообщение

user ®

Стаж: 7 лет 7 месяцев

Сообщений: 20008

Пост Пост: #1 от 22-Окт-2014 03:20

[Цитировать]

Геракл
Hercules
-
Год выпуска фильма: 2014
Страна: США
Жанр: боевик, приключения, фэнтези
Продолжительность: 01:38:06
Перевод: Профессиональный (полное дублирование) [звук с TS]
Русские субтитры: нет-Режиссер: Бретт Рэтнер / Brett Ratner-В ролях: Дуэйн Джонсон, Аксель Хенни, Джозеф Файнс, Джон Хёрт, Иэн МакШейн, Роберт Мэйллет, Руфус Сьюэлл, Ирина Шейк, Ингрид Болсай Бердал, Джо Андерсон...-Описание: Более тысячи лет назад измученная душа скиталась по Земле, полубог, получеловек — Геракл — могучий сын царя богов Зевса, совершив все 12 подвигов, потерял семью и теперь находит утешение только в кровавых битвах.
За эти годы он собирает вокруг себя шестерых таких же потерянных воинов, единственным смыслом жизни для которых стали сражения и присутствие смертельной опасности. Эти мужчины и женщина никогда не задают вопрос, где, почему или с кем они идут сражаться; только, сколько им заплатят. Зная это, фракийский царь Котис нанимает этих воинов, чтобы они обучили его солдат и сделали из них самую сильную и великую армию всех времен.
Геракл начинает сомневаться в намерениях Котиса, когда тот выводит свою армию и жертвами ее нападения становятся невинные люди соседних поселений. И тогда он принимает решение остановить обезумевшего от власти царя и его армию от похода на Грецию, а, быть может, и на сам Олимп…
- -Семпл: http://multi-up.com/1007577-Качество: WEB-DLRip [Рип с WEB-DL 720p]
Формат видео: AVI
Видео: 720x304 (2.37:1), 23.976 fps, XviD build 50 ~1857 kbps avg, 0.35 bit/pixel
Аудио: 44.100 kHz, MPEG Layer 3, 2 ch, ~128.00 kbps avg-

MediaInfo
General
Complete name : Gerakl.2014.Dt.WEB-DLRip.1400MB.avi
Format : AVI
Format/Info : Audio Video Interleave
File size : 1.37 GiB
Duration : 1h 38mn
Overall bit rate : 1 995 Kbps
Writing application : VirtualDubMod 1.5.10.2 (build 2540/release)
Writing library : VirtualDubMod build 2540/release
Video
ID : 0
Format : MPEG-4 Visual
Format profile : Advanced Simple@L5
Format settings, BVOP : 2
Format settings, QPel : No
Format settings, GMC : No warppoints
Format settings, Matrix : Default (MPEG)
Codec ID : XVID
Codec ID/Hint : XviD
Duration : 1h 38mn
Bit rate : 1 858 Kbps
Width : 720 pixels
Height : 304 pixels
Display aspect ratio : 2.35:1
Frame rate : 23.976 fps
Color space : YUV
Chroma subsampling : 4:2:0
Bit depth : 8 bits
Scan type : Progressive
Compression mode : Lossy
Bits/(Pixel*Frame) : 0.354
Stream size : 1.27 GiB (93%)
Writing library : XviD 1.2.1 (UTC 2008-12-04)
Audio
ID : 1
Format : MPEG Audio
Format version : Version 1
Format profile : Layer 3
Codec ID : 55
Codec ID/Hint : MP3
Duration : 1h 38mn
Bit rate mode : Constant
Bit rate : 128 Kbps
Channel(s) : 2 channels
Sampling rate : 44.1 KHz
Compression mode : Lossy
Stream size : 89.8 MiB (6%)
Alignment : Split accross interleaves
Interleave, duration : 42 ms (1.00 video frame)
Interleave, preload duration : 500 ms
Скриншот с названием фильма Скриншоты
Скачать

Скачать торрент!

Как скачивать? · Что такое торрент? · Рейтинг и ограничения

Сайт не распространяет и не хранит электронные версии произведений, а лишь предоставляет доступ к создаваемому пользователями каталогу ссылок на торрент-файлы, которые содержат только списки хеш-сумм

[Профиль] [ЛС]
Показать сообщения:    
Ответить на тему

Текущее время: Сегодня 00:38

Часовой пояс: GMT + 4



Вы не можете начинать темы
Вы не можете отвечать на сообщения
Вы не можете редактировать свои сообщения
Вы не можете удалять свои сообщения
Вы не можете голосовать в опросах
Вы не можете прикреплять файлы к сообщениям
Вы не можете скачивать файлы