Гробовщик / Mortician (Чин Куб / Chin Cub) [2013, Китай, ужасы, драма, мелодрама, HDRip] VO (Xixidok)

Ответить на тему
 
Автор Сообщение

user ®

Стаж: 13 лет

Сообщений: 15071

Пост Пост: #1 от 22-Окт-2014 00:10

[Цитировать]

Гробовщик / Mortician
Страна: Китай
Жанр: ужасы, драма, мелодрама
Год выпуска: 2013
Продолжительность: 01:34:40
Перевод: Одноголосый закадровый Xixidok
Cубтитры: нет
Оригинальная аудиодорожка: нет
Режиссер: Чин Куб / Chin Cub
В ролях: Бао Бэй Эр, Джим Чым Суй Мань, Дженис Мань Вин Сань, Стэнли Фун, Кристи Ён, Моника Мок
Описание: Сяобо, которого поразил удар молнии, не может улыбаться, поэтому ему приходится работать в морге и заниматься похоронами...
Релиз от -
Сэмпл: http://multi-up.com/1007648
Тип релиза: HDRip / BDRip 1080p
Контейнер: AVI
Видео: XviD, 1998 kbps, 720 х 304 pixels, 24.000 fps
Аудио: AC3, 192 Kbps, 2 channels, Front: L R, 48.0 KHz, 16 bits - Rus
КиноПоиск
MediaInfo
General
Complete name : D:\Mortician.2013.HDRip.1.45Gb.avi
Format : AVI
Format/Info : Audio Video Interleave
File size : 1.45 GiB
Duration : 1h 34mn
Overall bit rate : 2 199 Kbps
Writing application : VirtualDubMod 1.5.10.3 | www.virtualdub-fr.org || (build 2550/release)
Writing library : VirtualDubMod build 2550/release
Video
ID : 0
Format : MPEG-4 Visual
Format profile : Advanced Simple@L5
Format settings, BVOP : 1
Format settings, QPel : No
Format settings, GMC : No warppoints
Format settings, Matrix : Default (MPEG)
Codec ID : XVID
Codec ID/Hint : XviD
Duration : 1h 34mn
Bit rate : 1 998 Kbps
Width : 720 pixels
Height : 304 pixels
Display aspect ratio : 2.35:1
Frame rate : 24.000 fps
Color space : YUV
Chroma subsampling : 4:2:0
Bit depth : 8 bits
Scan type : Progressive
Compression mode : Lossy
Bits/(Pixel*Frame) : 0.380
Stream size : 1.32 GiB (91%)
Writing library : XviD 73
Audio
ID : 1
Format : AC-3
Format/Info : Audio Coding 3
Mode extension : CM (complete main)
Format settings, Endianness : Big
Codec ID : 2000
Duration : 1h 34mn
Bit rate mode : Constant
Bit rate : 192 Kbps
Channel(s) : 2 channels
Channel positions : Front: L R
Sampling rate : 48.0 KHz
Bit depth : 16 bits
Compression mode : Lossy
Stream size : 130 MiB (9%)
Alignment : Split accross interleaves
Interleave, duration : 42 ms (1.00 video frame)
Interleave, preload duration : 500 ms
Скриншоты
Скачать

Скачать торрент! Гробовщик / Mortician (Чин Куб / Chin Cub) [2013, Китай, ужасы, драма, мелодрама, HDRip] VO (Xixidok)

Как скачивать? · Что такое торрент? · Рейтинг и ограничения

Сайт не распространяет и не хранит электронные версии произведений, а лишь предоставляет доступ к создаваемому пользователями каталогу ссылок на торрент-файлы, которые содержат только списки хеш-сумм

[Профиль] [ЛС]
Показать сообщения:    
Ответить на тему

Текущее время: Сегодня 17:56

Часовой пояс: GMT + 4



Вы не можете начинать темы
Вы не можете отвечать на сообщения
Вы не можете редактировать свои сообщения
Вы не можете удалять свои сообщения
Вы не можете голосовать в опросах
Вы не можете прикреплять файлы к сообщениям
Вы не можете скачивать файлы