Трудный день / Kkeut-Kka-Ji-Gan-Da / A Hard Day (Ким Сон Хун / Kim Seong-Hun) [2014, Южная Корея, Боевик, триллер, криминал, HDTVRip] DVO (DeadSno & den904)

Ответить на тему
 
Автор Сообщение

user ®

Стаж: 13 лет

Сообщений: 15071

Пост Пост: #1 от 22-Окт-2014 00:10

[Цитировать]

Трудный день / Kkeut-Kka-Ji-Gan-Da / A Hard Day- Год выпуска: 2014
Страна: Южная Корея
Жанр: Боевик, триллер, криминал
Продолжительность: 01:50:53-Перевод: Любительский (двухголосый закадровый) (DeadSno & den904)
Cубтитры: Hет-Режиссер: Ким Сон Хун / Kim Seong-Hun
В ролях: Ли Сон Гюн, Чжин Ун Чо, Чон Ман Сик, Шин Дон Ми, Син Чжон Гын-Описание: Возвращаясь с похорон своей матери, детектив отдела специальных преступлений Го Гон Су попадает в аварию, в результате которой погибает человек. Произошедшая авария может мгновенно поставить крест на карьере, разрушив всю его жизнь. Для того, чтобы скрыть свое преступление, он прячет тело погибшего внутри гроба матери. Через несколько дней, факт преступления, совершенного Гон Су фиксируется в полиции, расследование этого дела и поиск виновного лица поручено его напарнику. Гон Су впадает в панику, потому что медленно, шаг за шагом, его напарник раскрывает все больше деталей той аварии. Что еще хуже, объявляется свидетель аварии, не просто осложняющий жизнь Гон Су, но и ставящий его жизнь под угрозу, в желании заставить того заплатить за ошибку…-Сэмпл: http://sendfile.su/1037917-Качество видео: HDTVRip
Формат видео: AVI
Видео: DivX 5, 720x304, 23.976fps, 1315kbps
Аудио: AC3, 6 ch, 448kbps

MediaInfo
Complete name : D:\3.Торренты\A.Hard.Day.2014.HDTVRip.1400mb.avi
Format : AVI
Format/Info : Audio Video Interleave
File size : 1.37 GiB
Duration : 1h 50mn
Overall bit rate : 1 772 Kbps
Writing application : VirtualDubModRus 1.5.10.2 (build 2542/release)
Writing library : VirtualDubMod build 2542/release
Video
ID : 0
Format : MPEG-4 Visual
Format profile : Advanced Simple@L5
Format settings, BVOP : Yes
Format settings, QPel : No
Format settings, GMC : No warppoints
Format settings, Matrix : Default (MPEG)
Codec ID : DX50
Codec ID/Hint : DivX 5
Duration : 1h 50mn
Bit rate : 1 315 Kbps
Width : 720 pixels
Height : 304 pixels
Display aspect ratio : 2.35:1
Frame rate : 23.976 fps
Color space : YUV
Chroma subsampling : 4:2:0
Bit depth : 8 bits
Scan type : Progressive
Compression mode : Lossy
Bits/(Pixel*Frame) : 0.251
Stream size : 1.02 GiB (74%)
Writing library : XviD 1.2.1 (UTC 2008-12-04)
Audio
ID : 1
Format : AC-3
Format/Info : Audio Coding 3
Mode extension : CM (complete main)
Format settings, Endianness : Big
Codec ID : 2000
Duration : 1h 50mn
Bit rate mode : Constant
Bit rate : 448 Kbps
Channel(s) : 6 channels
Channel positions : Front: L C R, Side: L R, LFE
Sampling rate : 48.0 KHz
Bit depth : 16 bits
Compression mode : Lossy
Stream size : 355 MiB (25%)
Alignment : Split accross interleaves
Interleave, duration : 42 ms (1.00 video frame)
Interleave, preload duration : 500 ms
Скриншот c названием фильма Скриншоты
Скачать

Скачать торрент! Трудный день / Kkeut-Kka-Ji-Gan-Da / A Hard Day (Ким Сон Хун / Kim Seong-Hun) [2014, Южная Корея, Боевик, триллер, криминал, HDTVRip] DVO (DeadSno & den904)

Как скачивать? · Что такое торрент? · Рейтинг и ограничения

Сайт не распространяет и не хранит электронные версии произведений, а лишь предоставляет доступ к создаваемому пользователями каталогу ссылок на торрент-файлы, которые содержат только списки хеш-сумм

[Профиль] [ЛС]
Показать сообщения:    
Ответить на тему

Текущее время: Сегодня 18:44

Часовой пояс: GMT + 4



Вы не можете начинать темы
Вы не можете отвечать на сообщения
Вы не можете редактировать свои сообщения
Вы не можете удалять свои сообщения
Вы не можете голосовать в опросах
Вы не можете прикреплять файлы к сообщениям
Вы не можете скачивать файлы