Ядерная семья / Сталкеры / Nuclear Family (Кайл Ранкин / Kyle Rankin) [2012, США, фантастика, триллер, HDTV 1080i] MVO + Original Eng

Ответить на тему
 
Автор Сообщение

user ®

Стаж: 7 лет 7 месяцев

Сообщений: 20008

Пост Пост: #1 от 22-Окт-2014 00:10

[Цитировать]

Ядерная семья / Сталкеры / Nuclear Family
Страна: США
Студия: Cocksure Entertainment
Жанр: фантастика, триллер
Год выпуска: 2012
Продолжительность: 01:35:45
Перевод: Профессиональный (многоголосый закадровый) Amedia Premium HD
Cубтитры: нет
Оригинальная аудиодорожка: английский
Режиссер: Кайл Ранкин / Kyle Rankin
В ролях: Корин Немек, Кинси Пэкэрд, Полин Кон, Даниэлла Харрис, Шарон Лоуренс, Рэй Уайз, Ли Аренберг, Паркер Крофт, Синди Вела, Джим Коди Уильямс, Дженнифер Бланк
Описание: История молодой пары, Джона и Линн, которые пытаются выжить в лесу после ядерной катастрофы. Со своей 11-летней дочерью Полин они находятся постоянно в движении и пытаются разыскать пропавшего без вести 8-летнего сына Гранта. Тем временем, общество и моральные ценности находятся в состоянии распада, и семья должна быть на шаг впереди берсеркеров: жестоких людей, для которых разбой, изнасилования и разрушения стали образом жизни. Фильм снят как пилот к одноименному сериалу.
II Сэмпл II IMDB II
Тип релиза: HDTV 1080i
Контейнер: TS
Видео: AVC 1920x1080 (16:9) 25.0fps Bit rate 6664Kbps High@L4.0
Аудио 1: AC3 48.0 KHz 2ch. 192kbps rus mvo Amedia Premium HD
Аудио 2: MP2 48.0 KHz 2ch. 192kbps eng
MediaInfo
Общее
Идентификатор : 1 (0x1)
Полное имя : E:\torrent\Nuclear Family.2011.HDTV1080i.ts
Формат : MPEG-TS
Размер файла : 4,96 Гбайт
Продолжительность : 1 ч. 35 м.
Режим общего битрейта : Переменный
Общий поток : 7419 Кбит/сек
Максимальный общий битрейт : 35,5 Мбит/сек
Видео
Идентификатор : 4113 (0x1011)
Идентификатор меню : 1 (0x1)
Формат : AVC
Формат/Информация : Advanced Video Codec
Профиль формата : High@L4.0
Параметр CABAC формата : Да
Параметр ReFrames формата : 4 кадра
Идентификатор кодека : 27
Продолжительность : 1 ч. 35 м.
Вид битрейта : Переменный
Битрейт : 6664 Кбит/сек
Максимальный битрейт : 40,0 Мбит/сек
Ширина : 1920 пикселей
Высота : 1080 пикселей
Соотношение сторон : 16:9
Частота кадров : 25,000 кадров/сек
Стандарт вещания : Component
Цветовое пространство : YUV
Субдискретизация насыщенности : 4:2:0
Битовая глубина : 8 бит
Тип развёртки : MBAFF
Бит/(Пиксели*Кадры) : 0.129
Размер потока : 4,46 Гбайт (90%)
Основные цвета : BT.709
Характеристики трансфера : BT.709
Коэффициенты матрицы : BT.709
Аудио #1
Идентификатор : 4352 (0x1100)
Идентификатор меню : 1 (0x1)
Формат : AC-3
Формат/Информация : Audio Coding 3
Расширение режима : CM (complete main)
Параметр Endianness формата : Big
Идентификатор кодека : 129
Продолжительность : 1 ч. 35 м.
Вид битрейта : Постоянный
Битрейт : 192 Кбит/сек
Каналы : 2 канала
Расположение каналов : Front: L R
Частота : 48,0 КГц
Битовая глубина : 16 бит
Метод сжатия : С потерями
Размер потока : 132 Мбайт (3%)
Аудио #2
Идентификатор : 4353 (0x1101)
Идентификатор меню : 1 (0x1)
Формат : MPEG Audio
Версия формата : Version 1
Профиль формата : Layer 2
Идентификатор кодека : 4
Продолжительность : 1 ч. 35 м.
Вид битрейта : Постоянный
Битрейт : 192 Кбит/сек
Каналы : 2 канала
Частота : 48,0 КГц
Метод сжатия : С потерями
Размер потока : 132 Мбайт (3%)
Скриншот с названием фильма Скриншоты
Скачать

Скачать торрент!

Как скачивать? · Что такое торрент? · Рейтинг и ограничения

Сайт не распространяет и не хранит электронные версии произведений, а лишь предоставляет доступ к создаваемому пользователями каталогу ссылок на торрент-файлы, которые содержат только списки хеш-сумм

[Профиль] [ЛС]
Показать сообщения:    
Ответить на тему

Текущее время: Сегодня 12:29

Часовой пояс: GMT + 4



Вы не можете начинать темы
Вы не можете отвечать на сообщения
Вы не можете редактировать свои сообщения
Вы не можете удалять свои сообщения
Вы не можете голосовать в опросах
Вы не можете прикреплять файлы к сообщениям
Вы не можете скачивать файлы