Хочу. Не могу / Скорострел / Premature (Дэн Бирс / Dan Beers) [2014, США, комедия, BDRip 720p] DVO (3А Студия) + 2x Sub (Eng) + Original Eng

Ответить на тему
 
Автор Сообщение

user ®

Стаж: 7 лет 7 месяцев

Сообщений: 20008

Пост Пост: #1 от 22-Окт-2014 00:10

[Цитировать]

Хочу. Не могу / Скорострел / Premature
Страна: США
Жанр: комедия
Год выпуска: 2014
Продолжительность: 01:33:41
Перевод: Любительский (двухголосый закадровый) 3А Студия по тексту М.Васильева
Cубтитры: английские [Full, SDH]
Оригинальная аудиодорожка: английский
-
Режиссер: Дэн Бирс / Dan Beers
В ролях: Джон Карна, Кэти Финдлей, Крэйг Робертс, Алан Тьюдик, Карлсон Янг, Брайан Хаски, Отем Диал, Зои Майерс, Элон Голд, Стив Култер
-
Описание: Для выпускника старших классов наступает самый главный день в его жизни, как в личном плане, так и в учебе. Но все обламывается, так и не дойдя до финала. Просыпаясь на следующее утро, он понимает, что попал в «День Сурка». И теперь ему предстоит раз за разом переживать все события этого самого главного дня, пока все не пройдет идеально. Но удастся ли ему выбраться из временной петли и сделать свои подростковые фантазии реальностью?

Тип релиза: BDRip 720p
Контейнер: MKV
Видео: H.264 / NTSC 16:9 / 1280x544 (2,35:1) / 5638 kbps / 24 fps / 0.329 bit/pixel / High@L4.1
Аудио 1: Russian / AC3 / 48 kHz / 2 Ch / 192 kbps / 16 bit / DVO
Аудио 2: English / DTS / 48 kHz / 5.1 Ch / 1509 kbps / 24 bit / Original
Формат субтитров: softsub (SRT)
Навигация по главам: есть

Сэмпл MediaInfo
Общее
Уникальный идентификатор : 207513958415099571322707622813884108021 (0x9C1DBC114D21934BAA76E3BA2E2E4CF5)
Полное имя : D:\Premature.2014.BDRip.720p.mkv
Формат : Matroska
Версия формата : Version 4 / Version 2
Размер файла : 4,80 Гбайт
Продолжительность : 1 ч. 33 м.
Общий поток : 7341 Кбит/сек
Дата кодирования : UTC 2014-10-20 18:59:00
Программа кодирования : mkvmerge v7.2.0 ('On Every Street') 64bit built on Sep 13 2014 15:52:10
Библиотека кодирования : libebml v1.3.0 + libmatroska v1.4.1
DURATION : 01:30:45.926000000
NUMBER_OF_FRAMES : 1482
NUMBER_OF_BYTES : 58789
_STATISTICS_WRITING_APP : mkvmerge v7.2.0 ('On Every Street') 64bit built on Sep 13 2014 15:52:10
_STATISTICS_WRITING_DATE_UTC : 2014-10-20 18:59:00
_STATISTICS_TAGS : BPS DURATION NUMBER_OF_FRAMES NUMBER_OF_BYTES
Видео
Идентификатор : 1
Формат : AVC
Формат/Информация : Advanced Video Codec
Профиль формата : High@L4.1
Параметр CABAC формата : Да
Параметр ReFrames формата : 12 кадров
Идентификатор кодека : V_MPEG4/ISO/AVC
Продолжительность : 1 ч. 33 м.
Битрейт : 5494 Кбит/сек
Ширина : 1280 пикселей
Высота : 544 пикселя
Соотношение сторон : 2,35:1
Режим частоты кадров : Постоянный
Частота кадров : 24,000 кадра/сек
Цветовое пространство : YUV
Субдискретизация насыщенности : 4:2:0
Битовая глубина : 8 бит
Тип развёртки : Прогрессивная
Бит/(Пиксели*Кадры) : 0.329
Размер потока : 3,60 Гбайт (75%)
Библиотека кодирования : x264 core 142 r2409kMod d6b4e63
Настройки программы : cabac=1 / ref=12 / deblock=1:-3:-3 / analyse=0x3:0x133 / me=umh / subme=11 / psy=1 / fade_compensate=0.00 / psy_rd=1.00:0.00 / mixed_ref=1 / me_range=24 / chroma_me=1 / trellis=2 / 8x8dct=1 / cqm=0 / deadzone=21,11 / fast_pskip=0 / chroma_qp_offset=-2 / threads=6 / lookahead_threads=1 / sliced_threads=0 / nr=0 / decimate=0 / interlaced=0 / bluray_compat=0 / constrained_intra=0 / fgo=0 / bframes=6 / b_pyramid=2 / b_adapt=2 / b_bias=0 / direct=3 / weightb=1 / open_gop=0 / weightp=2 / keyint=250 / keyint_min=24 / scenecut=40 / intra_refresh=0 / rc=crf / mbtree=0 / crf=15.0000 / qcomp=0.60 / qpmin=0 / qpmax=69 / qpstep=4 / ip_ratio=1.40 / pb_ratio=1.30 / aq=2:0.80
Язык : English
Default : Да
Forced : Нет
Коэффициенты матрицы : BT.709
DURATION : 01:33:40.250000000
NUMBER_OF_FRAMES : 134886
NUMBER_OF_BYTES : 3961092577
_STATISTICS_WRITING_APP : mkvmerge v7.2.0 ('On Every Street') 64bit built on Sep 13 2014 15:52:10
_STATISTICS_WRITING_DATE_UTC : 2014-10-20 18:59:00
_STATISTICS_TAGS : BPS DURATION NUMBER_OF_FRAMES NUMBER_OF_BYTES
Аудио #1
Идентификатор : 2
Формат : AC-3
Формат/Информация : Audio Coding 3
Расширение режима : CM (complete main)
Параметр Endianness формата : Big
Идентификатор кодека : A_AC3
Продолжительность : 1 ч. 33 м.
Вид битрейта : Постоянный
Битрейт : 192 Кбит/сек
Каналы : 2 канала
Расположение каналов : Front: L R
Частота : 48,0 КГц
Битовая глубина : 16 бит
Метод сжатия : С потерями
Размер потока : 129 Мбайт (3%)
Заголовок : DVO / 3А Студия
Язык : Russian
Default : Да
Forced : Нет
Аудио #2
Идентификатор : 3
Формат : DTS
Формат/Информация : Digital Theater Systems
Режим : 16
Параметр Endianness формата : Big
Идентификатор кодека : A_DTS
Продолжительность : 1 ч. 33 м.
Вид битрейта : Постоянный
Битрейт : 1509 Кбит/сек
Каналы : 6 каналов
Расположение каналов : Front: L C R, Side: L R, LFE
Частота : 48,0 КГц
Битовая глубина : 24 бит
Метод сжатия : С потерями
Размер потока : 1011 Мбайт (21%)
Заголовок : Original
Язык : English
Default : Нет
Forced : Нет
Текст #1
Идентификатор : 4
Формат : UTF-8
Идентификатор кодека : S_TEXT/UTF8
Идентификатор кодека/Информация : UTF-8 Plain Text
Заголовок : Original
Язык : English
Default : Нет
Forced : Нет
Текст #2
Идентификатор : 5
Формат : UTF-8
Идентификатор кодека : S_TEXT/UTF8
Идентификатор кодека/Информация : UTF-8 Plain Text
Заголовок : Original / SDH
Язык : English
Default : Нет
Forced : Нет
Меню
00:00:00.000 : en:00:00:00.000
00:09:16.042 : en:00:09:16.042
00:19:23.250 : en:00:19:23.250
00:30:12.125 : en:00:30:12.125
00:40:17.000 : en:00:40:17.000
00:51:11.833 : en:00:51:11.833
01:01:13.792 : en:01:01:13.792
01:12:07.917 : en:01:12:07.917
01:20:39.625 : en:01:20:39.625
01:28:40.417 : en:01:28:40.417
Скриншоты
Скачать

Скачать торрент!

Как скачивать? · Что такое торрент? · Рейтинг и ограничения

Сайт не распространяет и не хранит электронные версии произведений, а лишь предоставляет доступ к создаваемому пользователями каталогу ссылок на торрент-файлы, которые содержат только списки хеш-сумм

[Профиль] [ЛС]
Показать сообщения:    
Ответить на тему

Текущее время: Сегодня 16:34

Часовой пояс: GMT + 4



Вы не можете начинать темы
Вы не можете отвечать на сообщения
Вы не можете редактировать свои сообщения
Вы не можете удалять свои сообщения
Вы не можете голосовать в опросах
Вы не можете прикреплять файлы к сообщениям
Вы не можете скачивать файлы