Красавец и чудовище (Иван Криворучко мл.) [2014, Мелодрама, комедия, HDTVRip]

Ответить на тему
 
Автор Сообщение

user ®

Стаж: 7 лет 7 месяцев

Сообщений: 20008

Пост Пост: #1 от 22-Окт-2014 00:10

[Цитировать]

Красавец и чудовище Жанр: Мелодрама, комедия
Год выпуска: 2014
Продолжительность: 01:44:58
Режиссёр: Иван Криворучко мл.
В ролях: Вероника Пляшкевич, Алексей Анищенко, Артем Давидович, Валерия Шкирандо, Тамара Миронова, Анатолий Гурьев, Ирина Корниевич, Андрей Кривецкий, Андрей Карако, Анатолий Голуб, Олег Коц, Виталий Холодок, Валерий Кащеев, Диана Иванова, Анастасия Боброва, Инна Коляда
Описание: За словом в карман не лезет, себя в обиду не дает. За непримиримый характер, чумазое лицо и вечную телогрейку Варю называют «чудовищем».
Впрочем, не такое уж Варя «чудовище». Просто какой тут лоск, если работаешь от зари до зари, а всю зарплату забирают мать-пьяница и ее непутевый муж? Да и рынок провинциального городка – не то место, где можно научиться хорошим манерам. Варя и сама уже не помнит о времени, когда носила косу, была любимицей отца и лучшей ученицей в классе. Отец умер, и жизнь сложилась так… как сложилась. Варя не жалуется и не унывает, но ровно до того дня, пока не оказывается без дома и без работы. Директор рынка выбрасывает Варю на улицу за то, что она отдавила ногу и нахамила важному клиенту – столичному бизнесмену, красавцу Ивану. А мать не собирается держать дома «дармоедку».
Доп. информация:
Рип от:
Сэмпл: http://multi-up.com/1007584
Качество видео: HDTVRip
Формат видео: AVI
Видео: 640x352 (1.82:1), 25 fps, XviD build 73 ~856 kbps avg, 0.15 bit/pixel
Аудио: 48 kHz, MPEG Layer 3, 2 ch, ~128.00 kbps avg
MediaInfo
General
Complete name : D:\ТОРРЕНТ\Мои Рипы\Красавец и чудовище\Krasavets.i.Chudovische.2014.HDTVRip.Шкипер.avi
Format : AVI
Format/Info : Audio Video Interleave
File size : 747 MiB
Duration : 1h 44mn
Overall bit rate : 994 Kbps
Writing application : VirtualDubMod 1.5.10.3 | www.virtualdub-fr.org || (build 2550/release)
Writing library : VirtualDubMod build 2550/release
Video
ID : 0
Format : MPEG-4 Visual
Format profile : Advanced Simple@L5
Format settings, BVOP : 1
Format settings, QPel : No
Format settings, GMC : No warppoints
Format settings, Matrix : Default (MPEG)
Codec ID : XVID
Codec ID/Hint : XviD
Duration : 1h 44mn
Bit rate : 857 Kbps
Width : 640 pixels
Height : 352 pixels
Display aspect ratio : 16:9
Frame rate : 25.000 fps
Color space : YUV
Chroma subsampling : 4:2:0
Bit depth : 8 bits
Scan type : Progressive
Compression mode : Lossy
Bits/(Pixel*Frame) : 0.152
Stream size : 643 MiB (86%)
Writing library : XviD 73
Audio
ID : 1
Format : MPEG Audio
Format version : Version 1
Format profile : Layer 3
Mode : Joint stereo
Mode extension : MS Stereo
Codec ID : 55
Codec ID/Hint : MP3
Duration : 1h 44mn
Bit rate mode : Constant
Bit rate : 128 Kbps
Channel(s) : 2 channels
Sampling rate : 48.0 KHz
Compression mode : Lossy
Stream size : 96.1 MiB (13%)
Alignment : Aligned on interleaves
Interleave, duration : 40 ms (1.00 video frame)
Interleave, preload duration : 504 ms
Writing library : LAME3.99r
Encoding settings : -m j -V 4 -q 2 -lowpass 17 -b 128
Скриншот c названием фильма Скриншоты
Скачать

Скачать торрент!

Как скачивать? · Что такое торрент? · Рейтинг и ограничения

Сайт не распространяет и не хранит электронные версии произведений, а лишь предоставляет доступ к создаваемому пользователями каталогу ссылок на торрент-файлы, которые содержат только списки хеш-сумм

[Профиль] [ЛС]
Показать сообщения:    
Ответить на тему

Текущее время: Сегодня 16:10

Часовой пояс: GMT + 4



Вы не можете начинать темы
Вы не можете отвечать на сообщения
Вы не можете редактировать свои сообщения
Вы не можете удалять свои сообщения
Вы не можете голосовать в опросах
Вы не можете прикреплять файлы к сообщениям
Вы не можете скачивать файлы