Что случилось прошлой ночью / About Last Night (Стив Пинк / Steve Pink) [2014, США, Мелодрама, комедия, BDRip-AVC] MVO + Sub Eng + Original Eng

Ответить на тему
 
Автор Сообщение

user ®

Стаж: 7 лет 7 месяцев

Сообщений: 20008

Пост Пост: #1 от 22-Окт-2014 00:10

[Цитировать]

Что случилось прошлой ночьюAbout Last Night «It's about compromise. It's about love. It's about a good wingman»
Страна: США
Жанр: Мелодрама, комедия
Год выпуска: 2014
Продолжительность: 01:40:14
Перевод: Профессиональный (многоголосый закадровый) [ iTunes]
Cубтитры: английские
Оригинальная аудиодорожка: английский
Режиссер: Стив Пинк / Steve Pink
В ролях: Кевин Харт, Майкл Или, Реджина Холл, Джой Брайант, Кристофер МакДональд, Адам Родригес, Джо Ло Трульо, Пола Пэттон, Террелл Оуэнс, Катрин Шу...
Описание: История о двух парах, которые держат путь из бара в спальню, и оказываются подвергнуты испытанию в реальном мире…
Доп. информация:

Автор рипа: IVAN@190282
Качество видео: BDRip-AVC |Что случилось прошлой ночью / About Last Nightl (2014) 1080p BD-Remux|HD Club|
Формат видео: MKV
Видео: 1152x480 (2,35:1), 23.976 fps, 3268 Кbps, 0.246 bit/pixel
Аудио: 48 kHz, AC3 Dolby Digital, 3/2 (L,C,R,l,r) + LFE ch, 384.00 kbps | MVO
Аудио 2: 48 kHz, AC3 Dolby Digital, 3/2 (L,C,R,l,r) + LFE ch, 448.00 kbps | ENG
MediaInfo
General
Unique ID : 254245713637109338381377981715366520123 (0xBF45F17CEEEDC3A8A39121973817A53B)
Complete name : E:\Мои рипы\Что случилось прошлой ночью\Что случилось прошлой ночью by_IVAN@190282.mkv
Format : Matroska
Format version : Version 4 / Version 2
File size : 2.87 GiB
Duration : 1h 40mn
Overall bit rate : 4 104 Kbps
Encoded date : UTC 2014-10-21 15:19:45
Writing application : mkvmerge v7.0.0 ('Where We Going') 64bit built on Jun 9 2014 15:16:27
Writing library : libebml v1.3.0 + libmatroska v1.4.1
DURATION : 01:37:05.152000000
NUMBER_OF_FRAMES : 2582
NUMBER_OF_BYTES : 82654
_STATISTICS_WRITING_APP : mkvmerge v7.0.0 ('Where We Going') 64bit built on Jun 9 2014 15:16:27
_STATISTICS_WRITING_DATE_UTC : 2014-10-21 15:19:45
_STATISTICS_TAGS : BPS DURATION NUMBER_OF_FRAMES NUMBER_OF_BYTES
Video
ID : 1
Format : AVC
Format/Info : Advanced Video Codec
Format profile : High@L4.1
Format settings, CABAC : Yes
Format settings, ReFrames : 13 frames
Codec ID : V_MPEG4/ISO/AVC
Duration : 1h 40mn
Bit rate : 3 268 Kbps
Width : 1 152 pixels
Height : 480 pixels
Display aspect ratio : 2.35:1
Original display aspect ratio : 2.35:1
Frame rate mode : Constant
Frame rate : 23.976 fps
Color space : YUV
Chroma subsampling : 4:2:0
Bit depth : 8 bits
Scan type : Progressive
Bits/(Pixel*Frame) : 0.246
Stream size : 2.23 GiB (78%)
Writing library : x264 core 142 r2479kMod dd79a61
Encoding settings : cabac=1 / ref=13 / deblock=1:-3:-3 / analyse=0x3:0x113 / me=umh / subme=11 / psy=1 / fade_compensate=0.00 / psy_rd=1.00:0.15 / mixed_ref=1 / me_range=48 / chroma_me=1 / trellis=2 / 8x8dct=1 / cqm=0 / deadzone=21,11 / fast_pskip=0 / chroma_qp_offset=0 / threads=6 / lookahead_threads=6 / sliced_threads=0 / slices=10 / nr=0 / decimate=1 / interlaced=0 / bluray_compat=0 / constrained_intra=0 / fgo=0 / bframes=16 / b_pyramid=2 / b_adapt=2 / b_bias=0 / direct=3 / weightb=1 / open_gop=1 / weightp=2 / keyint=240 / keyint_min=23 / scenecut=40 / intra_refresh=0 / rc_lookahead=40 / rc=2pass / mbtree=0 / bitrate=3268 / ratetol=1.0 / qcomp=0.60 / qpmin=0 / qpmax=69 / qpstep=4 / cplxblur=20.0 / qblur=0.5 / vbv_maxrate=50000 / vbv_bufsize=62500 / nal_hrd=none / filler=0 / ip_ratio=1.40 / pb_ratio=1.30 / aq=1:1.00
Default : Yes
Forced : No
Color primaries : BT.709
Transfer characteristics : BT.709
Matrix coefficients : BT.709
Audio #1
ID : 2
Format : AC-3
Format/Info : Audio Coding 3
Mode extension : CM (complete main)
Format settings, Endianness : Big
Codec ID : A_AC3
Duration : 1h 40mn
Bit rate mode : Constant
Bit rate : 384 Kbps
Channel(s) : 6 channels
Channel positions : Front: L C R, Side: L R, LFE
Sampling rate : 48.0 KHz
Bit depth : 16 bits
Compression mode : Lossy
Stream size : 275 MiB (9%)
Title : mvo
Default : Yes
Forced : No
Audio #2
ID : 3
Format : AC-3
Format/Info : Audio Coding 3
Mode extension : CM (complete main)
Format settings, Endianness : Big
Codec ID : A_AC3
Duration : 1h 40mn
Bit rate mode : Constant
Bit rate : 448 Kbps
Channel(s) : 6 channels
Channel positions : Front: L C R, Side: L R, LFE
Sampling rate : 48.0 KHz
Bit depth : 16 bits
Compression mode : Lossy
Stream size : 321 MiB (11%)
Title : eng
Default : No
Forced : No
Text
ID : 4
Format : UTF-8
Codec ID : S_TEXT/UTF8
Codec ID/Info : UTF-8 Plain Text
Title : eng
Default : Yes
Forced : No
x264 log
x264 [info]: frame I:2166 Avg QP:14.07 size: 96601
x264 [info]: frame P:31647 Avg QP:16.20 size: 32583
x264 [info]: frame B:110380 Avg QP:18.20 size: 11019
x264 [info]: consecutive B-frames: 2.8% 3.5% 7.2% 22.4% 19.3% 33.3% 5.0% 4.1% 1.1% 0.3% 0.3% 0.5% 0.1% 0.1% 0.1% 0.0% 0.0%
x264 [info]: kb/s:3267.90
x264 [total]: encoded 144193 frames, 7.99 fps, 3267.90 kb/s, duration 5:00:48.17
Скриншот c названием фильма Скриншоты
Скачать

Скачать торрент!

Как скачивать? · Что такое торрент? · Рейтинг и ограничения

Сайт не распространяет и не хранит электронные версии произведений, а лишь предоставляет доступ к создаваемому пользователями каталогу ссылок на торрент-файлы, которые содержат только списки хеш-сумм

[Профиль] [ЛС]
Показать сообщения:    
Ответить на тему

Текущее время: Сегодня 08:12

Часовой пояс: GMT + 4



Вы не можете начинать темы
Вы не можете отвечать на сообщения
Вы не можете редактировать свои сообщения
Вы не можете удалять свои сообщения
Вы не можете голосовать в опросах
Вы не можете прикреплять файлы к сообщениям
Вы не можете скачивать файлы