Москва - Лопушки (Юрий Морозов) [2014, Мелодрама, комедия, WEB-DLRip-AVC]

Ответить на тему
 
Автор Сообщение

user ®

Стаж: 7 лет 7 месяцев

Сообщений: 20008

Пост Пост: #1 от 21-Окт-2014 13:25

[Цитировать]

Москва - Лопушки
Жанр: Мелодрама, комедия
Год выпуска: 2014
Продолжительность: 01:28:41
Страна: Россия
Студия: Студия ПРО100 Фильм
Режиссёр: Юрий Морозов
В ролях: Анастасия Задорожная, Алла Юганова, Виталий Альшанский, Елена Мольченко, Дмитрий Наумов, Александр Волков, Лилия Хасанова
Описание: Две сестры – две полные противоположности. Одна – Полина – городская фифа, работающая в крупном книжном издательстве. Другая – Маша – деревенская простушка, которая целыми днями возится в огороде, готовя на продажу заезжающим коммерсантам фермерские продукты. Жених Полины – ее босс, видный бизнесмен. Ухажер Маши – Вася, работяга и рубаха-парень. Все меняется в одночасье, когда в издательство к Полине заявляется жена ее босса, с которой он все как-то забывал развестись, и разом лишает Полину и жениха, и работы. Машина тихая жизнь в Лопушках круто переворачивается, когда скупщики продуктов ставят деревенским условие: либо селяне вдвое снижают цены, либо у них вообще не будут ничего покупать. Маша и Полина меняются местами: Полина мчится в деревню зализывать любовные раны, Маша рвется в Москву самостоятельно наладить поставку продукции в город, чтобы не прогорать на процентах от посредников.
Релиз от: 22011970zzz

Качество видео: WEB-DLRip-AVC
Формат видео: MKV
Видео: MPEG4 Video (H264), 1024x576 (16:9), 25fps, 2144 Kbps, 0.145 bit/pixel
Аудио: Dolby AC3 48000Hz stereo 192kbps
MediaInfo
General
Unique ID : 176412836012964824213138630677641256385 (0x84B7E058281D105194925DFAE4FB5DC1)
Complete name : E:\Films\New\Moskva.Lopushki.2014.mkv
Format : Matroska
Format version : Version 4 / Version 2
File size : 1.45 GiB
Duration : 1h 28mn
Overall bit rate : 2 338 Kbps
Encoded date : UTC 2014-10-09 03:57:10
Writing application : mkvmerge v6.1.0 ('Old Devil') built on Mar 2 2013 14:32:37
Writing library : libebml v1.3.0 + libmatroska v1.4.0
Video
ID : 1
Format : AVC
Format/Info : Advanced Video Codec
Format profile : High@L5.1
Format settings, CABAC : Yes
Format settings, ReFrames : 5 frames
Codec ID : V_MPEG4/ISO/AVC
Duration : 1h 28mn
Bit rate : 2 144 Kbps
Width : 1 024 pixels
Height : 576 pixels
Display aspect ratio : 16:9
Frame rate mode : Constant
Frame rate : 25.000 fps
Color space : YUV
Chroma subsampling : 4:2:0
Bit depth : 8 bits
Scan type : Progressive
Bits/(Pixel*Frame) : 0.145
Stream size : 1.30 GiB (90%)
Writing library : x264 core 142 r2431 ac76440
Encoding settings : cabac=1 / ref=5 / deblock=1:-3:-3 / analyse=0x3:0x133 / me=umh / subme=7 / psy=1 / psy_rd=1.00:0.00 / mixed_ref=1 / me_range=32 / chroma_me=1 / trellis=2 / 8x8dct=1 / cqm=0 / deadzone=21,11 / fast_pskip=1 / chroma_qp_offset=-2 / threads=4 / lookahead_threads=1 / sliced_threads=0 / nr=0 / decimate=1 / interlaced=0 / bluray_compat=0 / constrained_intra=0 / bframes=5 / b_pyramid=2 / b_adapt=2 / b_bias=0 / direct=3 / weightb=1 / open_gop=0 / weightp=2 / keyint=250 / keyint_min=25 / scenecut=40 / intra_refresh=0 / rc_lookahead=40 / rc=2pass / mbtree=1 / bitrate=2144 / ratetol=1.0 / qcomp=0.60 / qpmin=10 / qpmax=51 / qpstep=4 / cplxblur=20.0 / qblur=0.5 / vbv_maxrate=240000 / vbv_bufsize=240000 / nal_hrd=none / filler=0 / ip_ratio=1.40 / aq=1:1.00
Default : Yes
Forced : No
Audio
ID : 2
Format : AC-3
Format/Info : Audio Coding 3
Mode extension : CM (complete main)
Format settings, Endianness : Big
Codec ID : A_AC3
Duration : 1h 28mn
Bit rate mode : Constant
Bit rate : 192 Kbps
Channel(s) : 2 channels
Channel positions : Front: L R
Sampling rate : 48.0 KHz
Bit depth : 16 bits
Compression mode : Lossy
Stream size : 122 MiB (8%)
Default : Yes
Forced : No
Скриншоты -ПОЖАЛУЙСТА, НЕ ПОКИДАЙТЕ РАЗДАЧУ СРАЗУ ПОСЛЕ СКАЧИВАНИЯ,
ПОДДЕРЖИТЕ ТЕХ, КТО НА СТАРТОВОЙ ЧЕРТЕ
Скачать

Скачать торрент!

Как скачивать? · Что такое торрент? · Рейтинг и ограничения

Сайт не распространяет и не хранит электронные версии произведений, а лишь предоставляет доступ к создаваемому пользователями каталогу ссылок на торрент-файлы, которые содержат только списки хеш-сумм

[Профиль] [ЛС]
Показать сообщения:    
Ответить на тему

Текущее время: Сегодня 04:46

Часовой пояс: GMT + 4



Вы не можете начинать темы
Вы не можете отвечать на сообщения
Вы не можете редактировать свои сообщения
Вы не можете удалять свои сообщения
Вы не можете голосовать в опросах
Вы не можете прикреплять файлы к сообщениям
Вы не можете скачивать файлы