Код молчания / BBS. Silent Code / BBS xiang min de zheng yi (Лин Шийон / Hero Lin ShiYong) [2012, Тайвань, драма, анимация, HDRip] DVO [GREEN TEA]

Ответить на тему
 
Автор Сообщение

user ®

Стаж: 13 лет

Сообщений: 15071

Пост Пост: #1 от 21-Окт-2014 03:55

[Цитировать]

Код молчания / BBS. Silent Code / BBS xiang min de zheng yi- -Страна: Тайвань
Жанр: драма, анимация
Год выпуска: 2012
Продолжительность: 01:44:57-Перевод: Любительский (двухголосый закадровый) [GREEN TEA] (Анастасия Романова и Ярослав Мельник)-Cубтитры: нет
Оригинальная аудиодорожка: нет
Режиссер: Лин Шийон / Hero Lin ShiYong
В ролях: Айви Чэнь, Сю Цзе Кай, Чен Бо Лин, Го Сюэ Фу, Цзинь Цинь...
Описание: Что мы знаем об интернете и его обитателях? Одно сообщение сильно меняет жизнь Ли Чэн Сян: над ней начинают издеваться. Но кто и зачем разместил это сообщение на форуме BBS? Почему выбрали именно Сян? Неужели во всем замешан ее бывший парень - Кинг? Если да, то для чего ему это нужно? Ответы на эти вопросы можно узнать только посмотрев фильм.
Релиз от -
Сэмпл: http://multi-up.com/1007494
Качество видео: HDRip
Формат видео: AVI
Видео: MPEG-4 Visual at 1793 Кбит/сек; 720 x 304 (2.368) at 24.000 fps
Аудио: AC-3 at 192 Кбит/сек; 2 канала, 48,0 КГц
Автор -
MediaInfo
Общее
Полное имя : D:\Фильмы\Азиатские\Код молчания\BBS.Silent Code.2012.HDRip.XviD.1400MB. rip by [Assassin's Creed].avi
Формат : AVI
Формат/Информация : Audio Video Interleave
Размер файла : 1,46 Гбайт
Продолжительность : 1 ч. 44 м.
Общий поток : 1995 Кбит/сек
Программа кодирования : VirtualDubMod 1.5.10.2 (build 2540/release)
Библиотека кодирования : VirtualDubMod build 2540/release
Видео
Идентификатор : 0
Формат : MPEG-4 Visual
Профиль формата : Advanced Simple@L5
Параметр BVOP формата : 1
Параметр QPel формата : Нет
Параметр GMC формата : Без точки перехода
Параметр матрицы формата : Default (MPEG)
Идентификатор кодека : XVID
Идентификатор кодека/Подсказка : XviD
Продолжительность : 1 ч. 44 м.
Битрейт : 1793 Кбит/сек
Ширина : 720 пикселей
Высота : 304 пикселя
Соотношение сторон : 2,35:1
Частота кадров : 24,000 кадра/сек
Цветовое пространство : YUV
Субдискретизация насыщенности : 4:2:0
Битовая глубина : 8 бит
Тип развёртки : Прогрессивная
Метод сжатия : С потерями
Бит/(Пиксели*Кадры) : 0.341
Размер потока : 1,31 Гбайт (90%)
Библиотека кодирования : XviD 1.2.1 (UTC 2008-12-04)
Аудио
Идентификатор : 1
Формат : AC-3
Формат/Информация : Audio Coding 3
Расширение режима : CM (complete main)
Параметр Endianness формата : Big
Идентификатор кодека : 2000
Продолжительность : 1 ч. 44 м.
Вид битрейта : Постоянный
Битрейт : 192 Кбит/сек
Каналы : 2 канала
Расположение каналов : Front: L R
Частота : 48,0 КГц
Битовая глубина : 16 бит
Метод сжатия : С потерями
Размер потока : 144 Мбайт (10%)
Выравнивание : Разделение по промежуткам
Продолжительность промежутка : 42 мс. (1,00 видеокадр)
Время предзагрузки промежутка : 500 мс.
Скриншот c названием фильма Скриншоты
Скачать

Скачать торрент! Код молчания / BBS. Silent Code / BBS xiang min de zheng yi (Лин Шийон / Hero Lin ShiYong) [2012, Тайвань, драма, анимация, HDRip] DVO [GREEN TEA]

Как скачивать? · Что такое торрент? · Рейтинг и ограничения

Сайт не распространяет и не хранит электронные версии произведений, а лишь предоставляет доступ к создаваемому пользователями каталогу ссылок на торрент-файлы, которые содержат только списки хеш-сумм

[Профиль] [ЛС]
Показать сообщения:    
Ответить на тему

Текущее время: Сегодня 18:29

Часовой пояс: GMT + 4



Вы не можете начинать темы
Вы не можете отвечать на сообщения
Вы не можете редактировать свои сообщения
Вы не можете удалять свои сообщения
Вы не можете голосовать в опросах
Вы не можете прикреплять файлы к сообщениям
Вы не можете скачивать файлы