Желтый платочек счастья / The Yellow Handkerchief (Юдайан Прасад / Udayan Prasad) [2008, США, драма, мелодрама, HDTVRip 720p] DVO (NLS) + Sub Eng + Original Eng

Ответить на тему
 
Автор Сообщение

user ®

Стаж: 7 лет 7 месяцев

Сообщений: 20008

Пост Пост: #1 от 21-Окт-2014 03:55

[Цитировать]

Желтый платочек счастья / The Yellow Handkerchief
Страна: США
Жанр: драма, мелодрама
Год выпуска: 2008
Продолжительность: 01:35:48
Перевод: Профессиональный (двухголосый закадровый) NLS
Cубтитры: английские
Оригинальная аудиодорожка: английский
-
Режиссер: Юдайан Прасад / Udayan Prasad
В ролях: Уильям Хёрт, Кристен Стюарт, Эдди Редмэйн, Мария Белло, Каори Момои, Эммануэль Кон, Нурит Кон, Вероника Расселл, Гроувер Колсон, Лиша Брок
-
Описание: Бретт Хэнсон - преступник, которого только что выпустили на свободу. Вскоре его попутчиками становятся подросток Мартин и её приятель Горди.
У каждого из участников этого путешествия своя цель: Мартин убегает от родителей, Горди пытается стать ближе к Мартин, а Брэтт должен решить, хочет ли он начать новую жизнь или вернуться к прошлому, в котором его ждет любимая женщина.

Тип релиза: HDTVRip 720p
Контейнер: MKV
Видео: H.264 / NTSC 16:9 / 1280x546 (2,35:1) / 4534 kbps / 23,976 fps / 0.264 bit/pixel / High@L4.1
Аудио 1: Russian / AC3 / 48 kHz / 2 Ch / 192 kbps / 16 bit / DVO
Аудио 2: English / AC3 / 48 kHz / 5.1 Ch / 384 kbps / 16 bit / Original
Формат субтитров: softsub (SRT)

Об исходнике
First half of movie has AR 2.35:1, second has AR 2.40:1
(that's why the black border top and bottom)
Сравнение
Source (left) VS Encode (right)
Сэмпл MediaInfo
Общее
Уникальный идентификатор : 239854082705079017187538073069924251430 (0xB472374CDBE3D296B9176B5E59B5F726)
Полное имя : D:\The Yellow Handkerchief.2008.HDTVRip.720p.mkv
Формат : Matroska
Версия формата : Version 4 / Version 2
Размер файла : 3,42 Гбайт
Продолжительность : 1 ч. 35 м.
Общий поток : 5108 Кбит/сек
Дата кодирования : UTC 2014-10-18 19:52:00
Программа кодирования : mkvmerge v7.2.0 ('On Every Street') 64bit built on Sep 13 2014 15:52:10
Библиотека кодирования : libebml v1.3.0 + libmatroska v1.4.1
_STATISTICS_WRITING_APP : mkvmerge v7.2.0 ('On Every Street') 64bit built on Sep 13 2014 15:52:10
_STATISTICS_WRITING_DATE_UTC : 2014-10-18 19:52:00
_STATISTICS_TAGS : BPS DURATION NUMBER_OF_FRAMES NUMBER_OF_BYTES
DURATION : 01:31:55.223000000
NUMBER_OF_FRAMES : 1040
NUMBER_OF_BYTES : 29131
Видео
Идентификатор : 1
Формат : AVC
Формат/Информация : Advanced Video Codec
Профиль формата : High@L4.1
Параметр CABAC формата : Да
Параметр ReFrames формата : 11 кадров
Идентификатор кодека : V_MPEG4/ISO/AVC
Продолжительность : 1 ч. 35 м.
Битрейт : 4430 Кбит/сек
Ширина : 1280 пикселей
Высота : 546 пикселей
Соотношение сторон : 2,35:1
Режим частоты кадров : Постоянный
Частота кадров : 23,976 кадра/сек
Цветовое пространство : YUV
Субдискретизация насыщенности : 4:2:0
Битовая глубина : 8 бит
Тип развёртки : Прогрессивная
Бит/(Пиксели*Кадры) : 0.264
Размер потока : 2,96 Гбайт (87%)
Библиотека кодирования : x264 core 129 r2230 1cffe9f
Настройки программы : cabac=1 / ref=11 / deblock=1:-3:-3 / analyse=0x3:0x133 / me=tesa / subme=10 / psy=1 / psy_rd=1.05:0.00 / mixed_ref=1 / me_range=24 / chroma_me=1 / trellis=2 / 8x8dct=1 / cqm=0 / deadzone=21,11 / fast_pskip=0 / chroma_qp_offset=-2 / threads=12 / lookahead_threads=2 / sliced_threads=0 / nr=0 / decimate=0 / interlaced=0 / bluray_compat=0 / constrained_intra=0 / bframes=8 / b_pyramid=2 / b_adapt=2 / b_bias=0 / direct=3 / weightb=1 / open_gop=0 / weightp=2 / keyint=250 / keyint_min=23 / scenecut=40 / intra_refresh=0 / rc_lookahead=60 / rc=crf / mbtree=1 / crf=17.0 / qcomp=0.75 / qpmin=0 / qpmax=69 / qpstep=4 / vbv_maxrate=50000 / vbv_bufsize=62500 / crf_max=0.0 / nal_hrd=none / ip_ratio=1.40 / aq=1:0.80
Язык : English
Default : Да
Forced : Нет
Аудио #1
Идентификатор : 2
Формат : AC-3
Формат/Информация : Audio Coding 3
Расширение режима : CM (complete main)
Параметр Endianness формата : Big
Идентификатор кодека : A_AC3
Продолжительность : 1 ч. 35 м.
Вид битрейта : Постоянный
Битрейт : 192 Кбит/сек
Каналы : 2 канала
Расположение каналов : Front: L R
Частота : 48,0 КГц
Битовая глубина : 16 бит
Метод сжатия : С потерями
Размер потока : 132 Мбайт (4%)
Заголовок : DVO / NLS
Язык : Russian
Default : Да
Forced : Нет
Аудио #2
Идентификатор : 3
Формат : AC-3
Формат/Информация : Audio Coding 3
Расширение режима : CM (complete main)
Параметр Endianness формата : Big
Идентификатор кодека : A_AC3
Продолжительность : 1 ч. 35 м.
Вид битрейта : Постоянный
Битрейт : 384 Кбит/сек
Каналы : 6 каналов
Расположение каналов : Front: L C R, Side: L R, LFE
Частота : 48,0 КГц
Битовая глубина : 16 бит
Метод сжатия : С потерями
Размер потока : 263 Мбайт (8%)
Заголовок : Original
Язык : English
Default : Нет
Forced : Нет
Текст
Идентификатор : 4
Формат : UTF-8
Идентификатор кодека : S_TEXT/UTF8
Идентификатор кодека/Информация : UTF-8 Plain Text
Заголовок : Original
Язык : English
Default : Нет
Forced : Нет
Скриншоты
Скачать

Скачать торрент!

Как скачивать? · Что такое торрент? · Рейтинг и ограничения

Сайт не распространяет и не хранит электронные версии произведений, а лишь предоставляет доступ к создаваемому пользователями каталогу ссылок на торрент-файлы, которые содержат только списки хеш-сумм

[Профиль] [ЛС]
Показать сообщения:    
Ответить на тему

Текущее время: Сегодня 00:18

Часовой пояс: GMT + 4



Вы не можете начинать темы
Вы не можете отвечать на сообщения
Вы не можете редактировать свои сообщения
Вы не можете удалять свои сообщения
Вы не можете голосовать в опросах
Вы не можете прикреплять файлы к сообщениям
Вы не можете скачивать файлы