Капля / Сгусток / The Blob (Чак Рассел / Chuck Russell) [1988, США, ужасы, фантастика, боевик, BDRemux 1080p] DVO + VO + original (eng) + sub (eng)

Ответить на тему
 
Автор Сообщение

user ®

Стаж: 7 лет 7 месяцев

Сообщений: 20008

Пост Пост: #1 от 21-Окт-2014 03:55

[Цитировать]

Капля / Сгусток / The Blob
Год выпуска: 1988
Страна: США
Жанр: ужасы, фантастика, боевик
Продолжительность: 01:35:00
Перевод1: Профессиональный (двухголосый, закадровый)(РенТВ)
Перевод2: Одноголосый (закадровый)
Субтитры: английские
Оригинальная аудиодорожка: английский
Режиссер: Чак Рассел / Chuck Russell
В ролях: Кевин Диллон, Шоуни Смит, Донован Лейтч, Джеффри ДеМун, Кэнди Кларк, Джо Сенека, Дел Клоуз, Пол Мак Крейн
Описание: Роковой метеорит принес на землю страшное вещество. Жидкая плазма пожирает все на своем пути, чем больше жертв оказывается в ее бездонных недрах, тем больше становится этот сгусток черной энергии, несущий смерть.
Жители маленького американского городка не верят в страшные рассказы о дьявольской субстанции. А тем временем кровавая масса уже приближается к его окраине…


Качество: BDRemux 1080p
Формат: MKV
Видео кодек: H.264
Аудио кодек: AC3,DTS-MA
Видео: MPEG-4 AVC Video / 20000 kbps / 1080p / 23.976 fps / 16:9 / High Profile 4.1
Аудио1: Русский, AC3 2.0 192 Kbps 48,0 КГц(DVO RenTV)
Аудио2: Русский, AC3 2.0 192 Kbps 48,0 КГц(VO)
Аудио3: English / DTS-HD Master Audio / 5.1 / 48 kHz / 2697 kbps / 24-bit (DTS Core: 5.1 / 48 kHz / 1509 kbps / 24-bit)(Оригинал)
Субтитры: softsub (SRT)
Главы
MediaInfo
Общее
Уникальный идентификатор : 223336221475046255498752758230024598705 (0xA804FDDD768F6A66A4190A323E4634B1)
Полное имя : F:\The.Blob.1988.BDRemux.1080p.2xRus.Eng.mkv
Формат : Matroska
Версия формата : Version 4 / Version 2
Размер файла : 15,3 Гбайт
Продолжительность : 1 ч. 35 м.
Режим общего битрейта : Переменный
Общий поток : 23,1 Мбит/сек
Название фильма : The Blob
Дата кодирования : UTC 2014-10-19 08:38:03
Программа кодирования : mkvmerge v6.5.0 ('Isn't she lovely') built on Oct 20 2013 12:50:05
Библиотека кодирования : libebml v1.3.0 + libmatroska v1.4.1
Видео
Идентификатор : 1
Формат : AVC
Формат/Информация : Advanced Video Codec
Профиль формата : High@L4.1
Параметр CABAC формата : Да
Параметр ReFrames формата : 4 кадра
Идентификатор кодека : V_MPEG4/ISO/AVC
Продолжительность : 1 ч. 35 м.
Вид битрейта : Переменный
Максимальный битрейт : 35,0 Мбит/сек
Ширина : 1920 пикселей
Высота : 1080 пикселей
Соотношение сторон : 16:9
Режим частоты кадров : Постоянный
Частота кадров : 23,976 кадра/сек
Стандарт вещания : NTSC
Цветовое пространство : YUV
Субдискретизация насыщенности : 4:2:0
Битовая глубина : 8 бит
Тип развёртки : Прогрессивная
Заголовок : The Blob 1988
Default : Нет
Forced : Нет
Основные цвета : BT.709
Характеристики трансфера : BT.709
Коэффициенты матрицы : BT.709
Аудио #1
Идентификатор : 2
Формат : AC-3
Формат/Информация : Audio Coding 3
Расширение режима : CM (complete main)
Параметр Endianness формата : Big
Идентификатор кодека : A_AC3
Продолжительность : 1 ч. 35 м.
Вид битрейта : Постоянный
Битрейт : 192 Кбит/сек
Каналы : 2 канала
Расположение каналов : Front: L R
Частота : 48,0 КГц
Битовая глубина : 16 бит
Метод сжатия : С потерями
Размер потока : 130 Мбайт (1%)
Заголовок : DVO RenTV AC3 2.0 192 kbps
Язык : Russian
Default : Нет
Forced : Нет
Аудио #2
Идентификатор : 3
Формат : AC-3
Формат/Информация : Audio Coding 3
Расширение режима : CM (complete main)
Параметр Endianness формата : Big
Идентификатор кодека : A_AC3
Продолжительность : 1 ч. 35 м.
Вид битрейта : Постоянный
Битрейт : 192 Кбит/сек
Каналы : 2 канала
Расположение каналов : Front: L R
Частота : 48,0 КГц
Битовая глубина : 16 бит
Метод сжатия : С потерями
Размер потока : 130 Мбайт (1%)
Заголовок : VO AC3 2.0 192 kbps
Язык : Russian
Default : Нет
Forced : Нет
Аудио #3
Идентификатор : 4
Формат : DTS
Формат/Информация : Digital Theater Systems
Профиль формата : MA / Core
Режим : 16
Параметр Endianness формата : Big
Идентификатор кодека : A_DTS
Продолжительность : 1 ч. 35 м.
Вид битрейта : Переменный
Битрейт : Неизвестно / 1509 Кбит/сек
Каналы : 6 каналов
Расположение каналов : Front: L C R, Side: L R, LFE
Частота : 48,0 КГц
Битовая глубина : 24 бит
Метод сжатия : Без потерь / Lossy
Заголовок : DTS-HD MA 5.1 2697 kbps
Язык : English
Default : Нет
Forced : Нет
Текст
Идентификатор : 5
Формат : UTF-8
Идентификатор кодека : S_TEXT/UTF8
Идентификатор кодека/Информация : UTF-8 Plain Text
Язык : English
Default : Нет
Forced : Нет
Меню
00:00:00.000 : en:00:00:00.000
00:07:32.952 : en:00:07:32.952
00:16:18.269 : en:00:16:18.269
00:23:50.929 : en:00:23:50.929
00:32:13.265 : en:00:32:13.265
00:40:45.234 : en:00:40:45.234
00:47:34.435 : en:00:47:34.435
00:57:08.008 : en:00:57:08.008
01:03:57.042 : en:01:03:57.042
01:13:27.486 : en:01:13:27.486
01:21:48.320 : en:01:21:48.320
01:30:36.264 : en:01:30:36.264
Сэмпл Скриншоты
Скачать

Скачать торрент!

Как скачивать? · Что такое торрент? · Рейтинг и ограничения

Сайт не распространяет и не хранит электронные версии произведений, а лишь предоставляет доступ к создаваемому пользователями каталогу ссылок на торрент-файлы, которые содержат только списки хеш-сумм

[Профиль] [ЛС]
Показать сообщения:    
Ответить на тему

Текущее время: Сегодня 14:48

Часовой пояс: GMT + 4



Вы не можете начинать темы
Вы не можете отвечать на сообщения
Вы не можете редактировать свои сообщения
Вы не можете удалять свои сообщения
Вы не можете голосовать в опросах
Вы не можете прикреплять файлы к сообщениям
Вы не можете скачивать файлы