Одинокий мужчина / A Single Man (Том Форд / Tom Ford) [2009, США, Драма, BDRip 1080p] Dub ("Вольга") + Sub Rus + Original Eng

Ответить на тему
 
Автор Сообщение

user ®

Стаж: 7 лет 7 месяцев

Сообщений: 20008

Пост Пост: #1 от 21-Окт-2014 03:55

[Цитировать]

Одинокий мужчина / A Single Man
Страна: США
Жанр: Драма
Год выпуска: 2009
Продолжительность: 1:40:22
Перевод: Профессиональный (дублированный) "Вольга"
Cубтитры: русские UTF-8
Оригинальная аудиодорожка: английский
Режиссер: Том Форд / Tom Ford
В ролях: Колин Фёрт, Мэттью Гуд, Николас Холт, Джулианна Мур, Джон Кортахарена, Полетт Ламори, Райан Симпкинс, Джиннифер Гудвин, Тедди Сирс, Пол Батлер
Роли дублировали: Константин Лавроненко, Вера Воронкова, Антон Шагин
Описание: Лос-Анджелес, 1962 год. Профессор английской литературы Джордж отводит себе один день для ответа на вопрос, есть ли у него будущее после внезапной смерти любовника Джима, с которым он прожил 16 лет. В рассыпающемся на части мире Джордж ищет утешения у давней подруги Шарлотты, пытается зацепиться за красоту окружающей реальности, чтобы заново открыть смысл жизни.
Сэмпл
Тип релиза: BDRip 1080p
Контейнер: MKV
Видео: AVC; 1920x800 (2.40:1); 23,976 fps; 10965 kbps
Аудио: Russian; DTS; 5.1ch; 48000 HZ; 1509 kbps | DUB
Аудио 2: English; DTS; 5.1ch; 48000 HZ; 1509 kbps | ENG
Формат субтитров: softsub (SRT)
MediaInfo
General
Unique ID : 253980208208019920751032129895471781166 (0xBF12CF0F487F6CE4A22208A3CEA0152E)
Complete name : E:\Videos\Одинокий мужчина.mkv
Format : Matroska
Format version : Version 4 / Version 2
File size : 9.80 GiB
Duration : 1h 40mn
Overall bit rate : 14.0 Mbps
Movie name : Одинокий мужчина
Encoded date : UTC 2014-10-18 22:04:43
Writing application : mkvmerge v7.2.0 ('On Every Street') 64bit built on Sep 13 2014 15:52:10
Writing library : libebml v1.3.0 + libmatroska v1.4.1
_STATISTICS_WRITING_APP : mkvmerge v7.2.0 ('On Every Street') 64bit built on Sep 13 2014 15:52:10
_STATISTICS_WRITING_DATE_UTC : 2014-10-18 22:04:43
_STATISTICS_TAGS : BPS DURATION NUMBER_OF_FRAMES NUMBER_OF_BYTES
DURATION : 01:32:16.001000000
NUMBER_OF_FRAMES : 863
NUMBER_OF_BYTES : 55836
Video
ID : 1
Format : AVC
Format/Info : Advanced Video Codec
Format profile : High@L4.1
Format settings, CABAC : Yes
Format settings, ReFrames : 5 frames
Codec ID : V_MPEG4/ISO/AVC
Duration : 1h 40mn
Bit rate : 11.0 Mbps
Width : 1 920 pixels
Height : 800 pixels
Display aspect ratio : 2.40:1
Frame rate mode : Constant
Frame rate : 23.976 fps
Color space : YUV
Chroma subsampling : 4:2:0
Bit depth : 8 bits
Scan type : Progressive
Bits/(Pixel*Frame) : 0.298
Stream size : 7.48 GiB (76%)
Writing library : x264 core 94 r1583 7608d73
Encoding settings : cabac=1 / ref=5 / deblock=1:-1:-1 / analyse=0x3:0x113 / me=umh / subme=8 / psy=1 / psy_rd=1.00:0.00 / mixed_ref=1 / me_range=16 / chroma_me=1 / trellis=1 / 8x8dct=1 / cqm=0 / deadzone=21,11 / fast_pskip=0 / chroma_qp_offset=-2 / threads=12 / sliced_threads=0 / nr=0 / decimate=1 / interlaced=0 / constrained_intra=0 / bframes=3 / b_pyramid=2 / b_adapt=1 / b_bias=0 / direct=3 / weightb=1 / weightp=2 / keyint=250 / keyint_min=25 / scenecut=40 / intra_refresh=0 / rc_lookahead=40 / rc=2pass / mbtree=1 / bitrate=10965 / ratetol=1.0 / qcomp=0.60 / qpmin=10 / qpmax=51 / qpstep=4 / cplxblur=20.0 / qblur=0.5 / ip_ratio=1.40 / aq=1:1.10
Language : English
Default : Yes
Forced : No
_STATISTICS_WRITING_APP : mkvmerge v7.2.0 ('On Every Street') 64bit built on Sep 13 2014 15:52:10
_STATISTICS_WRITING_DATE_UTC : 2014-10-18 22:04:43
_STATISTICS_TAGS : BPS DURATION NUMBER_OF_FRAMES NUMBER_OF_BYTES
DURATION : 01:40:21.849000000
NUMBER_OF_FRAMES : 144380
NUMBER_OF_BYTES : 8242756011
Audio #1
ID : 2
Format : DTS
Format/Info : Digital Theater Systems
Mode : 16
Format settings, Endianness : Big
Codec ID : A_DTS
Duration : 1h 40mn
Bit rate mode : Constant
Bit rate : 1 510 Kbps
Channel(s) : 6 channels
Channel positions : Front: L C R, Side: L R, LFE
Sampling rate : 48.0 KHz
Bit depth : 24 bits
Compression mode : Lossy
Stream size : 1.06 GiB (11%)
Language : Russian
Default : Yes
Forced : No
Audio #2
ID : 3
Format : DTS
Format/Info : Digital Theater Systems
Mode : 16
Format settings, Endianness : Big
Codec ID : A_DTS
Duration : 1h 40mn
Bit rate mode : Constant
Bit rate : 1 509 Kbps
Channel(s) : 6 channels
Channel positions : Front: L C R, Side: L R, LFE
Sampling rate : 48.0 KHz
Bit depth : 16 bits
Compression mode : Lossy
Stream size : 1.06 GiB (11%)
Language : English
Default : No
Forced : No
Text
ID : 4
Format : UTF-8
Codec ID : S_TEXT/UTF8
Codec ID/Info : UTF-8 Plain Text
Language : Russian
Default : No
Forced : No
Скриншоты
Скачать

Скачать торрент!

Как скачивать? · Что такое торрент? · Рейтинг и ограничения

Сайт не распространяет и не хранит электронные версии произведений, а лишь предоставляет доступ к создаваемому пользователями каталогу ссылок на торрент-файлы, которые содержат только списки хеш-сумм

[Профиль] [ЛС]
Показать сообщения:    
Ответить на тему

Текущее время: Сегодня 21:40

Часовой пояс: GMT + 4



Вы не можете начинать темы
Вы не можете отвечать на сообщения
Вы не можете редактировать свои сообщения
Вы не можете удалять свои сообщения
Вы не можете голосовать в опросах
Вы не можете прикреплять файлы к сообщениям
Вы не можете скачивать файлы