Красавец и чудовище (Иван Криворучко младший) [2014, Мелодрама, комедия, HDTVRip]

Ответить на тему
 
Автор Сообщение

user ®

Стаж: 7 лет 7 месяцев

Сообщений: 20008

Пост Пост: #1 от 20-Окт-2014 20:10

[Цитировать]

Красавец и чудовище
Жанр: Мелодрама, комедия
Год выпуска: 2014
Продолжительность: 01:44:58
Страна: Россия
Студия: Медиапрофсоюз, ООО "Тесей Продакшн"
Режиссёр: Иван Криворучко младший
В ролях: Вероника Пляшкевич, Алексей Анищенко, Артем Давидович, Валерия Шкирандо, Тамара Миронова, Анатолий Гурьев, Ирина Корниевич, Андрей Кривецкий, Андрей Карако, Анатолий Голуб, Олег Коц, Виталий Холодок, Валерий Кащеев, Диана Иванова, Анастасия Боброва, Инна Коляда
Описание: За словом в карман не лезет, себя в обиду не дает. За непримиримый характер, чумазое лицо и вечную телогрейку Варю называют «чудовищем».
Впрочем, не такое уж Варя «чудовище». Просто какой тут лоск, если работаешь от зари до зари, а всю зарплату забирают мать-пьяница и ее непутевый муж? Да и рынок провинциального городка – не то место, где можно научиться хорошим манерам. Варя и сама уже не помнит о времени, когда носила косу, была любимицей отца и лучшей ученицей в классе. Отец умер, и жизнь сложилась так… как сложилась. Варя не жалуется и не унывает, но ровно до того дня, пока не оказывается без дома и без работы. Директор рынка выбрасывает Варю на улицу за то, что она отдавила ногу и нахамила важному клиенту – столичному бизнесмену, красавцу Ивану. А мать не собирается держать дома «дармоедку».
Релиз от группы Files-x

Качество видео: HDTVRip
Формат видео: AVI
Видео: Xvid 720x400 25fps 1674kbps
Аудио: Dolby AC3 48000Hz stereo 192kbps
MediaInfo
General
Complete name : E:\Films\New\Krasavets.i.Chudovische.2014.avi
Format : AVI
Format/Info : Audio Video Interleave
File size : 1.37 GiB
Duration : 1h 44mn
Overall bit rate : 1 863 Kbps
Writing application : VirtualDubMod 1.5.10.3 | www.virtualdub-fr.org || (build 2550/release)
Writing library : VirtualDubMod build 2550/release
Video
ID : 0
Format : MPEG-4 Visual
Format profile : Advanced Simple@L5
Format settings, BVOP : 1
Format settings, QPel : No
Format settings, GMC : No warppoints
Format settings, Matrix : Custom
Codec ID : XVID
Codec ID/Hint : XviD
Duration : 1h 44mn
Bit rate : 1 662 Kbps
Width : 720 pixels
Height : 400 pixels
Display aspect ratio : 16:9
Frame rate : 25.000 fps
Color space : YUV
Chroma subsampling : 4:2:0
Bit depth : 8 bits
Scan type : Progressive
Compression mode : Lossy
Bits/(Pixel*Frame) : 0.231
Stream size : 1.22 GiB (89%)
Writing library : XviD 73
Audio
ID : 1
Format : AC-3
Format/Info : Audio Coding 3
Mode extension : CM (complete main)
Format settings, Endianness : Big
Codec ID : 2000
Duration : 1h 44mn
Bit rate mode : Constant
Bit rate : 192 Kbps
Channel(s) : 2 channels
Channel positions : Front: L R
Sampling rate : 48.0 KHz
Bit depth : 16 bits
Compression mode : Lossy
Stream size : 144 MiB (10%)
Alignment : Split accross interleaves
Interleave, duration : 40 ms (1.00 video frame)
Interleave, preload duration : 500 ms
Скриншоты
Скачать

Скачать торрент!

Как скачивать? · Что такое торрент? · Рейтинг и ограничения

Сайт не распространяет и не хранит электронные версии произведений, а лишь предоставляет доступ к создаваемому пользователями каталогу ссылок на торрент-файлы, которые содержат только списки хеш-сумм

[Профиль] [ЛС]
Показать сообщения:    
Ответить на тему

Текущее время: Сегодня 02:20

Часовой пояс: GMT + 4



Вы не можете начинать темы
Вы не можете отвечать на сообщения
Вы не можете редактировать свои сообщения
Вы не можете удалять свои сообщения
Вы не можете голосовать в опросах
Вы не можете прикреплять файлы к сообщениям
Вы не можете скачивать файлы