Жмурки (Алексей Балабанов) [2005, криминальный, боевик, комедия, HDRip]

Ответить на тему
 
Автор Сообщение

user ®

Стаж: 7 лет 7 месяцев

Сообщений: 20008

Пост Пост: #1 от 20-Окт-2014 20:10

[Цитировать]

Жмурки
Жанр: Криминальный, Боевик, Комедия
Год выпуска: 2005
Продолжительность: 01:49:43
Режиссёр: Алексей Балабанов
Сценарий: Алексей Балабанов, Стас Мохначев
Композитор: Вячеслав Бутусов
В ролях: Алексей Панин, Дмитрий Дюжев, Никита Михалков, Сергей Маковецкий, Виктор Сухоруков, Дмитрий Певцов, Кирилл Пирогов, Алексей Серебряков, Андрей Мерзликин, Юрий Степанов, Григорий Сиятвинда, Анатолий Журавлев, Гарик Сукачев, Андрей Панин, Александр Баширов, Андрей Краско, Рената Литвинова, Татьяна Догилева, Сергей Глазунов, Жанна Болотова, Степан Бекетов
Описание: Жмурки - старинная русская игра: водящий, с завязанными глазами, ловит остальных играющих. К середине 1990-х правила игры изменились: выигрывает тот, кто останется в живых, сделав жмуриками остальных "играющих".Нижний Новгород. Два мелких бандита Серега и Саймон работали на крупного бандюгана Сергея Михайловича. Только вот очередное его поручение парни завалили: он велел привезти химика, колдовавшего над созданием новой порции белого порошка, а Серега и Саймон устроили в лаборатории настоящую бойню, оставив там трупы — химика и парочки его охранников.Сергей Михайлович сильно рассердился, но ограничился устным внушением, после чего дал парням другое поручение: съездить в адвокатскую контору и обменять чемоданчик с деньгами на чемоданчик с героином. Но и тут Сереге и Саймону не повезло: обмен-то состоялся, только на выходе из конторы их встретили Корон, Бала и Баклажан — три бандита, которых нанял старший лейтенант милиции Степан, "оборотень в погонах", мечтающий кинуть Сергея Михайловича на большие бабки...
Доп. информация:

Формат видео: AVI
Качество видео: HDRip (BDRip.720p)
Видео кодек: XviD
Аудио кодек: MP3
Видео: XviD, 656х368, 23.976fps, 815kbps
Аудио: MPEG Layer 3, 48000Hz, 128kbps, stereo
MediaInfo
General
Complete name : Ghmurki.2005.O.HDRip.700.MediaClub.CurHaJI.avi
Format : AVI
Format/Info : Audio Video Interleave
File size : 748 MiB
Duration : 1h 49mn
Overall bit rate : 953 Kbps
Writing application : VirtualDubMod 1.5.10.3 | www.virtualdub-fr.org || (build 2550/release)
Writing library : VirtualDubMod build 2550/release
Video
ID : 0
Format : MPEG-4 Visual
Format profile : Advanced Simple@L5
Format settings, BVOP : 2
Format settings, QPel : No
Format settings, GMC : No warppoints
Format settings, Matrix : Custom
Codec ID : XVID
Codec ID/Hint : XviD
Duration : 1h 49mn
Bit rate : 815 Kbps
Width : 656 pixels
Height : 368 pixels
Display aspect ratio : 16:9
Frame rate : 23.976 fps
Color space : YUV
Chroma subsampling : 4:2:0
Bit depth : 8 bits
Scan type : Progressive
Compression mode : Lossy
Bits/(Pixel*Frame) : 0.141
Stream size : 640 MiB (86%)
Writing library : XviD 1.2.1 (UTC 2008-12-04)
Audio
ID : 1
Format : MPEG Audio
Format version : Version 1
Format profile : Layer 3
Codec ID : 55
Codec ID/Hint : MP3
Duration : 1h 49mn
Bit rate mode : Constant
Bit rate : 128 Kbps
Channel(s) : 2 channels
Sampling rate : 48.0 KHz
Compression mode : Lossy
Stream size : 100 MiB (13%)
Alignment : Aligned on interleaves
Interleave, duration : 42 ms (1.00 video frame)
Interleave, preload duration : 504 ms
Writing library : L3.99r
Encoding settings : -m s -V 4 -q 2 -lowpass 17 -b 128
Скриншоты
Скачать

Скачать торрент!

Как скачивать? · Что такое торрент? · Рейтинг и ограничения

Сайт не распространяет и не хранит электронные версии произведений, а лишь предоставляет доступ к создаваемому пользователями каталогу ссылок на торрент-файлы, которые содержат только списки хеш-сумм

[Профиль] [ЛС]
Показать сообщения:    
Ответить на тему

Текущее время: Сегодня 22:02

Часовой пояс: GMT + 4



Вы не можете начинать темы
Вы не можете отвечать на сообщения
Вы не можете редактировать свои сообщения
Вы не можете удалять свои сообщения
Вы не можете голосовать в опросах
Вы не можете прикреплять файлы к сообщениям
Вы не можете скачивать файлы