Разрешите тебя поцеловать… отец невесты (Петр Амелин) [2014, Комедия, WEB-DLRip]

Ответить на тему
 
Автор Сообщение

user ®

Стаж: 7 лет 7 месяцев

Сообщений: 20008

Пост Пост: #1 от 20-Окт-2014 20:10

[Цитировать]

Разрешите тебя поцеловать… отец невесты
Жанр: Комедия
Год выпуска: 2014
Продолжительность: 01:30:50
Режиссёр: Петр Амелин
В ролях: Игорь Лифанов, Мария Куликова, Борис Щербаков, Сергей Лосев
Описание: Прошло три года после событий фильма «Разрешите тебя поцеловать…на свадьбе», в котором Власов с честью вышел из истории с «бывшей женой», проверкой его части и свадьбой. Теперь полковник Григорий Власов примерный отец семьянин и служака. Наташа и Григорий живут в своей квартире в Санкт-Петербурге и воспитывают чудесного трехлетнего мальчика Родиона. Генерал вышел на пенсию и с удовольствием живет на «генеральской даче» на берегу финского залива. Кругом идиллия.
Как гром среди ясного неба из Лондона приезжает «Муха». Дочь Власова от первого брака, Маша, которая, наконец, закончила свое обучение за рубежом. И все бы ничего, только приезжает она домой не одна, а с молодым человеком.
Власов и капитан Маленьких устраивают Гарри настоящую солдатскую «муштру». Тем временем Наташа решила, что ей пора выходить из декретного отпуска, на службу — маленький Родя уже подрос и его можно оставлять с няней. «Только жены мне в части не хватало» — восклицает Власов! Сможет ли Гарри пройти все козни и испытания, которые приготовит ему хитроумный «отец невесты»? Получится ли у Наташи и Григория служить вместе в одной части? Выйдет ли Маша замуж за Гарри, или судьба приготовит ей лучший вариант? Все это в четвертой части комедии «Разрешите тебя поцеловать… отец невесты»
Релиз от DGEYK

Качество видео: WEB-DLRip (AVC)
Формат видео: MKV
Видео: MPEG4 Video (H264) 1024x576 25fps 1978 Kbps
Аудио: Dolby AC3 44100Hz stereo 192kbps
MediaInfo
General
Unique ID : 195384715789151248018820391709180337649 (0x92FDBA3C387158ED925D1F8CE1669DF1)
Complete name : E:\Films\New\Razreshite.tebia.potselovat.otec.nevesti.2014.mkv
Format : Matroska
Format version : Version 4 / Version 2
File size : 1.38 GiB
Duration : 1h 30mn
Overall bit rate : 2 171 Kbps
Encoded date : UTC 2014-10-16 02:56:24
Writing application : mkvmerge v6.1.0 ('Old Devil') built on Mar 4 2013 09:10:42
Writing library : libebml v1.3.0 + libmatroska v1.4.0
Video
ID : 1
Format : AVC
Format/Info : Advanced Video Codec
Format profile : High@L3.2
Format settings, CABAC : Yes
Format settings, ReFrames : 8 frames
Codec ID : V_MPEG4/ISO/AVC
Duration : 1h 30mn
Bit rate : 1 978 Kbps
Width : 1 024 pixels
Height : 576 pixels
Display aspect ratio : 16:9
Frame rate mode : Constant
Frame rate : 25.000 fps
Color space : YUV
Chroma subsampling : 4:2:0
Bit depth : 8 bits
Scan type : Progressive
Bits/(Pixel*Frame) : 0.134
Stream size : 1.23 GiB (89%)
Writing library : x264 core 138 r2358 9e941d1
Encoding settings : cabac=1 / ref=8 / deblock=1:-2:-2 / analyse=0x3:0x133 / me=umh / subme=11 / psy=1 / psy_rd=1.00:0.10 / mixed_ref=1 / me_range=48 / chroma_me=1 / trellis=2 / 8x8dct=1 / cqm=0 / deadzone=21,11 / fast_pskip=0 / chroma_qp_offset=-3 / threads=6 / lookahead_threads=1 / sliced_threads=0 / nr=0 / decimate=1 / interlaced=0 / bluray_compat=0 / constrained_intra=0 / bframes=8 / b_pyramid=2 / b_adapt=1 / b_bias=0 / direct=3 / weightb=1 / open_gop=0 / weightp=2 / keyint=250 / keyint_min=25 / scenecut=40 / intra_refresh=0 / rc_lookahead=40 / rc=2pass / mbtree=1 / bitrate=1978 / ratetol=1.0 / qcomp=0.60 / qpmin=0 / qpmax=69 / qpstep=4 / cplxblur=20.0 / qblur=0.5 / ip_ratio=1.40 / aq=1:1.00
Language : Russian
Default : Yes
Forced : Yes
Audio
ID : 2
Format : AC-3
Format/Info : Audio Coding 3
Mode extension : CM (complete main)
Format settings, Endianness : Big
Codec ID : A_AC3
Duration : 1h 30mn
Bit rate mode : Constant
Bit rate : 192 Kbps
Channel(s) : 2 channels
Channel positions : Front: L R
Sampling rate : 44.1 KHz
Bit depth : 16 bits
Compression mode : Lossy
Stream size : 125 MiB (9%)
Language : Russian
Default : Yes
Forced : Yes
Скриншоты
Скачать

Скачать торрент!

Как скачивать? · Что такое торрент? · Рейтинг и ограничения

Сайт не распространяет и не хранит электронные версии произведений, а лишь предоставляет доступ к создаваемому пользователями каталогу ссылок на торрент-файлы, которые содержат только списки хеш-сумм

[Профиль] [ЛС]
Показать сообщения:    
Ответить на тему

Текущее время: Сегодня 03:12

Часовой пояс: GMT + 4



Вы не можете начинать темы
Вы не можете отвечать на сообщения
Вы не можете редактировать свои сообщения
Вы не можете удалять свои сообщения
Вы не можете голосовать в опросах
Вы не можете прикреплять файлы к сообщениям
Вы не можете скачивать файлы