Годзилла / Godzilla (Гарет Эдвардс / Gareth Edwards) [2014, США, Япония, фантастика, боевик, триллер, HDRip] Dub

Ответить на тему
 
Автор Сообщение

user ®

Стаж: 7 лет 7 месяцев

Сообщений: 20008

Пост Пост: #1 от 20-Окт-2014 10:40

[Цитировать]

Годзилла / Godzilla
Страна: США, Япония
Жанр: Фантастика, Боевик, Триллер
Год выпуска: 2014
Продолжительность: 02:03:07
Перевод: Профессиональный (дублированный)
Роли дублировали: Антон Эльдаров, Иван Дахненко, Василий Дахненко, Алексей Рязанцев, Александр Груздев, Вероника Саркисова, Елена Ивасишина, Елена Харитонова, Василий Бочкарев, Михаил Белякович
Режиссер: Гарет Эдвардс / Gareth Edwards
В ролях: Аарон Тейлор-Джонсон, Кен Ватанабе, Элизабет Олсен, Салли Хокинс, Брайан Крэнстон, Дэвид Стрэтэйрн, Ричард Т. Джонс, Карсон Болд, Жюльет Бинош, Виктор Расук
Описание: Человечество случайно разбудило гигантское древнее существо, что повлекло за собой ужасающие последствия...
Доп. информация:

Формат видео: AVI
Качество видео: HDRip (BDRip.1080p) (лицензия)
Видео кодек: XviD
Аудио кодек: MP3
Видео: XviD, 656х272, 23.976fps, 715kbps
Аудио: MPEG Layer 3, 48000Hz, 128kbps, stereo
MediaInfo
General
Complete name : Godzilla.2014.D.HDRip.745.MediaClub.CurHaJI.avi
Format : AVI
Format/Info : Audio Video Interleave
File size : 750 MiB
Duration : 2h 3mn
Overall bit rate : 852 Kbps
Writing application : VirtualDubMod 1.5.10.3 | www.virtualdub-fr.org || (build 2550/release)
Writing library : VirtualDubMod build 2550/release
Video
ID : 0
Format : MPEG-4 Visual
Format profile : Advanced Simple@L5
Format settings, BVOP : 2
Format settings, QPel : No
Format settings, GMC : No warppoints
Format settings, Matrix : Custom
Codec ID : XVID
Codec ID/Hint : XviD
Duration : 2h 3mn
Bit rate : 715 Kbps
Width : 656 pixels
Height : 272 pixels
Display aspect ratio : 2.40:1
Frame rate : 23.976 fps
Color space : YUV
Chroma subsampling : 4:2:0
Bit depth : 8 bits
Scan type : Progressive
Compression mode : Lossy
Bits/(Pixel*Frame) : 0.167
Stream size : 629 MiB (84%)
Writing library : XviD 1.2.1 (UTC 2008-12-04)
Audio
ID : 1
Format : MPEG Audio
Format version : Version 1
Format profile : Layer 3
Codec ID : 55
Codec ID/Hint : MP3
Duration : 2h 3mn
Bit rate mode : Constant
Bit rate : 128 Kbps
Channel(s) : 2 channels
Sampling rate : 48.0 KHz
Compression mode : Lossy
Stream size : 113 MiB (15%)
Alignment : Aligned on interleaves
Interleave, duration : 42 ms (1.00 video frame)
Interleave, preload duration : 504 ms
Writing library : L3.99r
Encoding settings : -m s -V 4 -q 2 -lowpass 17 -b 128
Скриншоты
Скачать

Скачать торрент!

Как скачивать? · Что такое торрент? · Рейтинг и ограничения

Сайт не распространяет и не хранит электронные версии произведений, а лишь предоставляет доступ к создаваемому пользователями каталогу ссылок на торрент-файлы, которые содержат только списки хеш-сумм

[Профиль] [ЛС]
Показать сообщения:    
Ответить на тему

Текущее время: Сегодня 15:35

Часовой пояс: GMT + 4



Вы не можете начинать темы
Вы не можете отвечать на сообщения
Вы не можете редактировать свои сообщения
Вы не можете удалять свои сообщения
Вы не можете голосовать в опросах
Вы не можете прикреплять файлы к сообщениям
Вы не можете скачивать файлы