Вкривь и вкось / Kris Kras (Давид Грифхорст / David Grifhorst) [2014, Голландия, семейный, приключения, комедия, SATRip] Sub Rus + Original Dut

Ответить на тему
 
Автор Сообщение

user ®

Стаж: 7 лет 7 месяцев

Сообщений: 20008

Пост Пост: #1 от 20-Окт-2014 10:40

[Цитировать]

Вкривь и вкось / Kris Kras
Страна: Голландия
Жанр: семейный, приключения, комедия
Год выпуска: 2014
Продолжительность: 01:22:28
Перевод: Субтитры (Алексей Крылов aka rrrtttsss aka prostotak)
Cубтитры: русские
Оригинальная аудиодорожка: нидерландский
Режиссер: Давид Грифхорст / David Grifhorst
В ролях: Камьель ван Опхем, Йентль Майер, Том Янсен, Ким Питерс, Тьеббо Герритсма, Бинг Вирсма, Мигель Штигтер и др.
Описание: Юрре и Кики - 9-летние близнецы, родители которых развелись и вечно работают, поэтому единственный настоящий дом для брата и сестры, где им хорошо и где им всегда рады - дом дедушки. Но их мать получает работу на Ибице и вместе с детьми переезжает туда. После их отъезда случается несчастье: дедушка получает тяжелую травму и попадает в больницу, а поскольку ухаживать за ним некому, то его решают определить в дом престарелых, а дом продать. И Юрре и Кики, сбежав от матери, отправляются в долгое путешествие через всю Европу, чтобы спасти и деда, и его дом...
Доп. информация: Информация о фильме на IMDB - http://www.imdb.com/title/tt3275144/
Сэмпл: http://multi-up.com/1007310
Качество видео: SATRip
Формат видео: MKV
Видео: AVC, 720x576 (анаморф 1024x576) (16:9), 25 fps, 1344 kbps
Аудио: AC-3, 48 KHz, 448 kbps, 6 ch, 16 bit
Формат субтитров: softsub (SRT)
MediaInfo
Общее
Уникальный идентификатор : 146379436711292945075108176472039617030 (0x6E1FA76F326E71F57A4DEA116FE5F206)
Полное имя : H:\SEED\Kris Kras (2014) rus\Kris Kras (2014) rus.mkv
Формат : Matroska
Версия формата : Version 2
Размер файла : 1,03 Гбайт
Продолжительность : 1 ч. 22 м.
Общий поток : 1795 Кбит/сек
Программа кодирования : XviD4PSP 6.0 / 53.6.0
Библиотека кодирования : XviD4PSP 6.0 / 53.6.0
Видео
Идентификатор : 1
Формат : AVC
Формат/Информация : Advanced Video Codec
Профиль формата : High@L4.1
Параметр CABAC формата : Да
Параметр ReFrames формата : 3 кадра
Идентификатор кодека : V_MPEG4/ISO/AVC
Продолжительность : 1 ч. 22 м.
Битрейт : 1344 Кбит/сек
Ширина : 720 пикселей
Высота : 576 пикселей
Соотношение сторон : 16:9
Режим частоты кадров : Постоянный
Частота кадров : 25,000 кадров/сек
Стандарт вещания : PAL
Цветовое пространство : YUV
Субдискретизация насыщенности : 4:2:0
Битовая глубина : 8 бит
Тип развёртки : Прогрессивная
Бит/(Пиксели*Кадры) : 0.130
Размер потока : 774 Мбайт (73%)
Библиотека кодирования : x264 core 116 r2019M 9cc407d
Настройки программы : cabac=1 / ref=3 / deblock=1:-1:-1 / analyse=0x3:0x133 / me=tesa / subme=10 / psy=1 / psy_rd=1.00:0.15 / mixed_ref=1 / me_range=16 / chroma_me=1 / trellis=2 / 8x8dct=1 / cqm=0 / deadzone=21,11 / fast_pskip=1 / chroma_qp_offset=-3 / threads=6 / sliced_threads=0 / nr=0 / decimate=1 / interlaced=0 / bluray_compat=0 / constrained_intra=0 / bframes=3 / b_pyramid=1 / b_adapt=2 / b_bias=0 / direct=3 / weightb=1 / open_gop=0 / weightp=2 / keyint=250 / keyint_min=25 / scenecut=40 / intra_refresh=0 / rc_lookahead=40 / rc=2pass / mbtree=1 / bitrate=1344 / ratetol=1.0 / qcomp=0.60 / qpmin=10 / qpmax=51 / qpstep=4 / cplxblur=20.0 / qblur=0.5 / ip_ratio=1.40 / aq=1:1.00
Default : Да
Forced : Нет
Аудио
Идентификатор : 2
Формат : AC-3
Формат/Информация : Audio Coding 3
Расширение режима : CM (complete main)
Параметр Endianness формата : Big
Идентификатор кодека : A_AC3
Продолжительность : 1 ч. 22 м.
Вид битрейта : Постоянный
Битрейт : 448 Кбит/сек
Каналы : 6 каналов
Расположение каналов : Front: L C R, Side: L R, LFE
Частота : 48,0 КГц
Битовая глубина : 16 бит
Метод сжатия : С потерями
Размер потока : 264 Мбайт (25%)
Default : Да
Forced : Нет
Образец субтитров
1
00:00:07,145 --> 00:00:09,434
(По-испански): Я живу на Ибице.
2
00:00:12,277 --> 00:00:14,277
Я живу на Ибице.
3
00:00:17,323 --> 00:00:19,323
Я живу на Ибице.
4
00:00:22,500 --> 00:00:24,000
Меня зовут Педро.
5
00:00:24,025 --> 00:00:25,613
Меня зовут Кики.
6
00:00:51,495 --> 00:00:53,673
Не смей, у меня прическа испортится!
7
00:00:55,560 --> 00:00:57,560
Не трогай, разобьешь!
8
00:01:06,749 --> 00:01:08,907
Что ты делаешь?!.
Да, я слушаю.
9
00:01:10,081 --> 00:01:12,486
Во время движения
10
00:01:12,536 --> 00:01:14,536
ты должна пользоваться громкой связью.
11
00:01:22,350 --> 00:01:28,778
ВКРИВЬ И ВКОСЬ
12
00:01:30,197 --> 00:01:32,197
А к дедушке мы не можем поехать?
13
00:01:32,652 --> 00:01:36,172
Дорогой, вы уже давно не видели папу,
он хочет показать вам кое-что интересное.
14
00:01:36,817 --> 00:01:38,184
Дедушку тоже.
15
00:01:38,838 --> 00:01:41,088
Мамочка, я хочу к папе.
16
00:01:50,235 --> 00:01:52,037
Что вы здесь делаете?
- Папа!
17
00:01:52,481 --> 00:01:55,323
Здорово, дружище! Привет, конфетка!
18
00:01:55,481 --> 00:01:57,775
Сегодня ты присматриваешь за детьми.
19
00:01:58,546 --> 00:02:01,438
Ах, да! Ну, конечно, дети, отлично!
20
00:02:01,637 --> 00:02:06,104
У Кики занятия по плаванию в три часа,
а Юрре уже исчерпал свое время за компьютером.
Скриншот c названием фильма Скриншоты
Скачать

Скачать торрент!

Как скачивать? · Что такое торрент? · Рейтинг и ограничения

Сайт не распространяет и не хранит электронные версии произведений, а лишь предоставляет доступ к создаваемому пользователями каталогу ссылок на торрент-файлы, которые содержат только списки хеш-сумм

[Профиль] [ЛС]
Показать сообщения:    
Ответить на тему

Текущее время: Сегодня 06:12

Часовой пояс: GMT + 4



Вы не можете начинать темы
Вы не можете отвечать на сообщения
Вы не можете редактировать свои сообщения
Вы не можете удалять свои сообщения
Вы не можете голосовать в опросах
Вы не можете прикреплять файлы к сообщениям
Вы не можете скачивать файлы