Миллион способов потерять голову / A Million Ways to Die in the West (Сет МакФарлейн / Seth MacFarlane) [2014, США, комедия, вестерн, BDRip 720p] [Unrated Cut] Dub + MVO FiliZa Studio + Original Eng + Sub Rus, Eng

Ответить на тему
 
Автор Сообщение

user ®

Стаж: 7 лет 7 месяцев

Сообщений: 20008

Пост Пост: #1 от 20-Окт-2014 00:50

[Цитировать]

Миллион способов потерять голову / A Million Ways to Die in the West- Страна: США
Жанр: комедия, вестерн
Год выпуска: 2014
Продолжительность: 02:14:44
Перевод: Профессиональный (дублированный) + русские субтитры на расширенные эпизоды
+ Профессиональный многоголосый закадровый FiliZa Studio
Cубтитры: русские, английские
Оригинальная аудиодорожка: английский-Режиссер: Сет МакФарлейн / Seth MacFarlane
В ролях: Сет МакФарлейн, Шарлиз Терон, Аманда Сайфред, Лиам Нисон, Джованни Рибизи, Нил Патрик Харрис, Сара Силверман, Кристофер Хэйген, Уэс Стьюди, Мэтт Кларк.
Описание: Действия фильма происходит в забытом Богом городке, где жить оказывается очень непросто: в ресторанах постоянно хамят, о горячей воде слышно только в легендах, а о транспорте даже и сказать нечего. Но и в таком месте человек может встретить свою любовь, что и происходит с главным героем. В городе появилась таинственная незнакомка, которая обладает не только отменной фигурой, но и отлично стреляет с двух рук. Конечно же в такую красотку просто не возможно не влюбиться, но как ей сказать о своих чувствах, когда являешься полным неудачником, не умеющим постоять за себя. Тогда остается только одно — взять себя в руки и сделать все возможное для того, что бы стать настоящим мужчиной, за которым любая женщина чувствовала бы себя, как за каменной стеной.-Тип релиза: BDRip 720p (Sergei7721)
Контейнер: MKV | Sample
Видео: 1280x532 (2.40:1), 23.976 fps, High Profile 4.1 ~5600 kbps
Аудио 1: Russian 48 kHz, 5.1 AC3 Dolby Digital Audio, 448.00 kbps | Dub
Аудио 2: Russian 48 kHz, 5.1 AC3 Dolby Digital Audio, 640.00 kbps | MVO
Аудио 3: English 48 kHz, 5.1 DTS Audio, 1509.00 kbps | Original

Инфо
Формат : Matroska
Версия формата : Version 4 / Version 2
Размер файла : 7,72 Гбайт
Продолжительность : 2 ч. 14 м.
Общий поток : 8198 Кбит/сек
Название фильма : Миллион способов потерять голову 2014 Расширенная версия
Дата кодирования : UTC 2014-10-18 10:42:22
Программа кодирования : mkvmerge v6.6.0 ('The Edge Of The In Between') built on Dec 1 2013 17:55:00
Библиотека кодирования : libebml v1.3.0 + libmatroska v1.4.1
Видео
Идентификатор : 1
Формат : AVC
Формат/Информация : Advanced Video Codec
Профиль формата : High@L4.1
Параметр CABAC формата : Да
Параметр ReFrames формата : 8 кадров
Идентификатор кодека : V_MPEG4/ISO/AVC
Продолжительность : 2 ч. 14 м.
Битрейт : 5600 Кбит/сек
Ширина : 1280 пикселей
Высота : 532 пикселя
Соотношение сторон : 2,40:1
Режим частоты кадров : Постоянный
Частота кадров : 23,976 кадра/сек
Цветовое пространство : YUV
Субдискретизация насыщенности : 4:2:0
Битовая глубина : 8 бит
Тип развёртки : Прогрессивная
Бит/(Пиксели*Кадры) : 0.343
Размер потока : 5,12 Гбайт (66%)
Заголовок : BDRip 720p CEE
Библиотека кодирования : x264 core 133 r2334 a3ac64b
Настройки программы : cabac=1 / ref=8 / deblock=1:-1:-1 / analyse=0x3:0x113 / me=umh / subme=11 / psy=1 / psy_rd=1.00:0.20 / mixed_ref=1 / me_range=32 / chroma_me=1 / trellis=2 / 8x8dct=1 / cqm=0 / deadzone=21,11 / fast_pskip=0 / chroma_qp_offset=-3 / threads=12 / lookahead_threads=1 / sliced_threads=0 / nr=0 / decimate=0 / interlaced=0 / bluray_compat=0 / constrained_intra=0 / bframes=6 / b_pyramid=2 / b_adapt=2 / b_bias=0 / direct=3 / weightb=1 / open_gop=0 / weightp=2 / keyint=240 / keyint_min=23 / scenecut=40 / intra_refresh=0 / rc_lookahead=40 / rc=2pass / mbtree=0 / bitrate=5600 / ratetol=1.0 / qcomp=0.60 / qpmin=0 / qpmax=69 / qpstep=4 / cplxblur=20.0 / qblur=0.5 / vbv_maxrate=50000 / vbv_bufsize=62500 / nal_hrd=none / ip_ratio=1.40 / pb_ratio=1.30 / aq=1:1.00
Язык : English
Default : Да
Forced : Нет
Аудио #1
Идентификатор : 2
Формат : AC-3
Формат/Информация : Audio Coding 3
Расширение режима : CM (complete main)
Параметр Endianness формата : Big
Идентификатор кодека : A_AC3
Продолжительность : 2 ч. 14 м.
Вид битрейта : Постоянный
Битрейт : 448 Кбит/сек
Каналы : 6 каналов
Расположение каналов : Front: L C R, Side: L R, LFE
Частота : 48,0 КГц
Битовая глубина : 16 бит
Метод сжатия : С потерями
Размер потока : 432 Мбайт (5%)
Заголовок : Dub CEE
Язык : Russian
Default : Да
Forced : Нет
Аудио #2
Идентификатор : 3
Формат : AC-3
Формат/Информация : Audio Coding 3
Расширение режима : CM (complete main)
Параметр Endianness формата : Big
Идентификатор кодека : A_AC3
Продолжительность : 2 ч. 14 м.
Вид битрейта : Постоянный
Битрейт : 640 Кбит/сек
Каналы : 6 каналов
Расположение каналов : Front: L C R, Side: L R, LFE
Частота : 48,0 КГц
Битовая глубина : 16 бит
Метод сжатия : С потерями
Размер потока : 617 Мбайт (8%)
Заголовок : MVO FiliZa Studio
Язык : Russian
Default : Нет
Forced : Нет
Аудио #3
Идентификатор : 4
Формат : DTS
Формат/Информация : Digital Theater Systems
Режим : 16
Параметр Endianness формата : Big
Идентификатор кодека : A_DTS
Продолжительность : 2 ч. 14 м.
Вид битрейта : Постоянный
Битрейт : 1509 Кбит/сек
Каналы : 6 каналов
Расположение каналов : Front: L C R, Side: L R, LFE
Частота : 48,0 КГц
Битовая глубина : 24 бит
Метод сжатия : С потерями
Размер потока : 1,42 Гбайт (18%)
Заголовок : Original
Язык : English
Default : Нет
Forced : Нет
Текст #1
Идентификатор : 5
Формат : UTF-8
Идентификатор кодека : S_TEXT/UTF8
Идентификатор кодека/Информация : UTF-8 Plain Text
Заголовок : Forced
Язык : Russian
Default : Да
Forced : Нет
Текст #2
Идентификатор : 6
Формат : UTF-8
Идентификатор кодека : S_TEXT/UTF8
Идентификатор кодека/Информация : UTF-8 Plain Text
Заголовок : Full
Язык : Russian
Default : Нет
Forced : Нет
Текст #3
Идентификатор : 7
Формат : UTF-8
Идентификатор кодека : S_TEXT/UTF8
Идентификатор кодека/Информация : UTF-8 Plain Text
Заголовок : Full
Язык : English
Default : Нет
Forced : Нет
Текст #4
Идентификатор : 8
Формат : UTF-8
Идентификатор кодека : S_TEXT/UTF8
Идентификатор кодека/Информация : UTF-8 Plain Text
Заголовок : Full SDH
Язык : English
Default : Нет
Forced : Нет
Меню
00:00:00.000 : en:00:00:00.000
00:03:02.140 : en:00:03:02.140
00:10:16.115 : en:00:10:16.115
00:14:17.314 : en:00:14:17.314
00:20:15.213 : en:00:20:15.213
00:24:56.494 : en:00:24:56.494
00:35:36.842 : en:00:35:36.842
00:42:33.842 : en:00:42:33.842
00:48:56.224 : en:00:48:56.224
00:55:28.533 : en:00:55:28.533
01:02:34.125 : en:01:02:34.125
01:13:24.024 : en:01:13:24.024
01:22:45.960 : en:01:22:45.960
01:30:53.030 : en:01:30:53.030
01:35:20.089 : en:01:35:20.089
01:42:03.659 : en:01:42:03.659
01:45:44.379 : en:01:45:44.379
01:53:38.478 : en:01:53:38.478
02:01:40.584 : en:02:01:40.584
02:08:31.161 : en:02:08:31.161
02:14:44.367 : en:02:14:44.367
Скриншоты
Скачать

Скачать торрент!

Как скачивать? · Что такое торрент? · Рейтинг и ограничения

Сайт не распространяет и не хранит электронные версии произведений, а лишь предоставляет доступ к создаваемому пользователями каталогу ссылок на торрент-файлы, которые содержат только списки хеш-сумм

[Профиль] [ЛС]
Показать сообщения:    
Ответить на тему

Текущее время: Сегодня 13:35

Часовой пояс: GMT + 4



Вы не можете начинать темы
Вы не можете отвечать на сообщения
Вы не можете редактировать свои сообщения
Вы не можете удалять свои сообщения
Вы не можете голосовать в опросах
Вы не можете прикреплять файлы к сообщениям
Вы не можете скачивать файлы