Для императора / Рэкет. Во имя босса / For the Emperor / Hwangjereul Wihayeo (Пак Сан-чжун / San Pak-chung) [2014, Корея Южная, драма, боевик, криминал, HDRip] DVO [DeadSno & den904]

Ответить на тему
 
Автор Сообщение

user ®

Стаж: 13 лет

Сообщений: 15071

Пост Пост: #1 от 19-Окт-2014 21:40

[Цитировать]

Для императора / Рэкет. Во имя босса / For the Emperor / Hwangjereul Wihayeo- -Страна: Корея Южная
Жанр: драма, боевик, криминал
Год выпуска: 2014
Продолжительность: 01:44:16-Перевод: Любительский (двухголосый закадровый) [DeadSno & den904]-Cубтитры: нет
Оригинальная аудиодорожка: нет
Режиссер: Пак Сан-чжун / San Pak-chung
В ролях: Пак Сон Ун, Ли Мин Ки, Ли Тэ-им, Ким Чжон-гу, Чжон Хын Чхе, Ли Чжэ-Вон...
Описание: Перспективные бейсболист Ли Хван был изгнан из своей лиги и потерял все после разразившегося скандала о договорных матчах с его участием. Ожидая возможности вернуться в большой спорт, опальный спортсмен получает работу в крупнейшей Пусанской компании частного займа «Emperor Capital».
Релиз от -
Сэмпл: http://multi-up.com/1007222
Качество видео: HDRip
Формат видео: AVI
Видео: MPEG-4 Visual at 1553 Кбит/сек; 720 x 304 (2.368) at 24.000 fps
Аудио: AC-3 at 448 Кбит/сек; 6 каналов, 48,0 КГц
Автор -
MediaInfo
Общее
Полное имя : D:\Фильмы\Азиатские\Для императора\For the Emperor.2014.HDRip.XviD.1400MB. rip by [Assassin's Creed].avi
Формат : AVI
Формат/Информация : Audio Video Interleave
Размер файла : 1,46 Гбайт
Продолжительность : 1 ч. 44 м.
Общий поток : 2011 Кбит/сек
Программа кодирования : VirtualDubMod 1.5.10.3 | www.virtualdub-fr.org || (build 2550/release)
Библиотека кодирования : VirtualDubMod build 2550/release
Видео
Идентификатор : 0
Формат : MPEG-4 Visual
Профиль формата : Advanced Simple@L5
Параметр BVOP формата : 1
Параметр QPel формата : Нет
Параметр GMC формата : Без точки перехода
Параметр матрицы формата : Default (MPEG)
Идентификатор кодека : XVID
Идентификатор кодека/Подсказка : XviD
Продолжительность : 1 ч. 44 м.
Битрейт : 1553 Кбит/сек
Ширина : 720 пикселей
Высота : 304 пикселя
Соотношение сторон : 2,35:1
Частота кадров : 24,000 кадра/сек
Цветовое пространство : YUV
Субдискретизация насыщенности : 4:2:0
Битовая глубина : 8 бит
Тип развёртки : Прогрессивная
Метод сжатия : С потерями
Бит/(Пиксели*Кадры) : 0.296
Размер потока : 1,13 Гбайт (77%)
Библиотека кодирования : XviD 1.2.1 (UTC 2008-12-04)
Аудио
Идентификатор : 1
Формат : AC-3
Формат/Информация : Audio Coding 3
Расширение режима : CM (complete main)
Параметр Endianness формата : Big
Идентификатор кодека : 2000
Продолжительность : 1 ч. 44 м.
Вид битрейта : Постоянный
Битрейт : 448 Кбит/сек
Каналы : 6 каналов
Расположение каналов : Front: L C R, Side: L R, LFE
Частота : 48,0 КГц
Битовая глубина : 16 бит
Метод сжатия : С потерями
Размер потока : 334 Мбайт (22%)
Выравнивание : Разделение по промежуткам
Продолжительность промежутка : 42 мс. (1,00 видеокадр)
Время предзагрузки промежутка : 500 мс.
Скриншот c названием фильма Скриншоты
Скачать

Скачать торрент! Для императора / Рэкет. Во имя босса / For the Emperor / Hwangjereul Wihayeo (Пак Сан-чжун / San Pak-chung) [2014, Корея Южная, драма, боевик, криминал, HDRip] DVO [DeadSno & den904]

Как скачивать? · Что такое торрент? · Рейтинг и ограничения

Сайт не распространяет и не хранит электронные версии произведений, а лишь предоставляет доступ к создаваемому пользователями каталогу ссылок на торрент-файлы, которые содержат только списки хеш-сумм

[Профиль] [ЛС]
Показать сообщения:    
Ответить на тему

Текущее время: Сегодня 15:49

Часовой пояс: GMT + 4



Вы не можете начинать темы
Вы не можете отвечать на сообщения
Вы не можете редактировать свои сообщения
Вы не можете удалять свои сообщения
Вы не можете голосовать в опросах
Вы не можете прикреплять файлы к сообщениям
Вы не можете скачивать файлы