Шафт / Shaft (Джон Синглтон / John Singleton) [2000, Германия, США, боевик, триллер, криминал, BDRip 1080p] MVO (Премьер Видео) + MVO (НТВ Беларусь) + MVO + AVO (Ю.Живов) + Sub (Rus, Eng) + Original Eng

Ответить на тему
 
Автор Сообщение

user ®

Стаж: 7 лет 7 месяцев

Сообщений: 20008

Пост Пост: #1 от 19-Окт-2014 21:40

[Цитировать]

Шафт / Shaft
Страна: Германия, США
Студия: Paramount Pictures
Жанр: боевик, триллер, криминал
Год выпуска: 2000
Продолжительность: 01:39:19
Перевод: Профессиональный (многоголосый закадровый) Премьер Видео
Перевод 2: Профессиональный (многоголосый закадровый) НТВ Беларусь
Перевод 3: Профессиональный (многоголосый закадровый)
Перевод 4: Авторский (одноголосый закадровый) Ю.Живов
Cубтитры: русские, английские
Оригинальная аудиодорожка: английский
Режиссер: Джон Синглтон / John Singleton
В ролях: Сэмюэл Л. Джексон, Ванесса Уильямс, Джеффри Райт, Кристиан Бэйл, Баста Раймс, Дэн Хедайя, Тони Коллетт, Ричард Раундтри, Рубен Сантьяго-Хадсон, Йозеф Зоммер
Описание: Все знают, что детектив Джон Шафт — самый крутой полицейский в городе. Некоторые полагают, что его жестокие методы «работы с уголовниками» не оправданы. Это не так.
Просто Джон один из тех людей в этом падшем городе, кто еще не забыл, что есть Справедливость! Вот за эту самую Справедливость Шафт и будет биться до конца.
Нести нелегкую службу Шафту помогает дядя — полицейский в отставке, у которого в молодости все бандиты «стояли на ушах» и которому сам король диско, Айзик Хейс посвятил свою песню.
На этот раз Шафту досталось сложное дело. Джону нужно, во что бы то ни стало, усадить за решетку безжалостного убийцу и найти единственного свидетеля, который ему в этом поможет.
Кинопоиск|Imdb|Сэмпл
Тип релиза: BDRip 1080p
Контейнер: MKV
Видео: MPEG4 Video (H264) 1916x802 (43:18) 23.976fps 12.1 Mbps
Аудио: Русский AC-3 / 2 ch / 48.0 KHz / 192 Kbps / Премьер Видео
Аудио 2: Русский AC-3 / 2 ch / 48.0 KHz / 192 Kbps / НТВ Беларусь
Аудио 3: Русский AC-3 / 6 ch / 48.0 KHz / 384 Kbps /
Аудио 4: Русский AC-3 / 6 ch / 48.0 KHz / 640 Kbps / Ю.Живов
Аудио 5: Английский AC-3 / 6 ch / 48.0 KHz / 640 Kbps
Формат субтитров: softsub (SRT)

MediaInfo
General
Unique ID : 220678894286080690258335741071441768311 (0xA6053584F47D1072A7B13FAF81D3AF77)
Complete name : D:\Shaft.2000.BDRip.1080p.mkv
Format : Matroska
Format version : Version 4 / Version 2
File size : 9.82 GiB
Duration : 1h 39mn
Overall bit rate : 14.1 Mbps
Encoded date : UTC 2014-10-16 09:23:39
Writing application : mkvmerge v6.9.1 ('Blue Panther') 64bit built on Apr 18 2014 18:23:38
Writing library : libebml v1.3.0 + libmatroska v1.4.1
Video
ID : 1
Format : AVC
Format/Info : Advanced Video Codec
Format profile : High@L4.1
Format settings, CABAC : Yes
Format settings, ReFrames : 5 frames
Codec ID : V_MPEG4/ISO/AVC
Duration : 1h 39mn
Bit rate : 12.1 Mbps
Width : 1 916 pixels
Height : 802 pixels
Display aspect ratio : 2.40:1
Frame rate mode : Constant
Frame rate : 23.976 fps
Color space : YUV
Chroma subsampling : 4:2:0
Bit depth : 8 bits
Scan type : Progressive
Bits/(Pixel*Frame) : 0.328
Stream size : 8.20 GiB (84%)
Title : MPEG-4AVC@High Profile L4.1, 24/1.001 fps @ 12100 kbps
Writing library : x264 core 132 r2310 76a5c3a
Encoding settings : cabac=1 / ref=5 / deblock=1:-3:-3 / analyse=0x3:0x133 / me=umh / subme=11 / psy=1 / psy_rd=1.00:0.00 / mixed_ref=1 / me_range=32 / chroma_me=1 / trellis=2 / 8x8dct=1 / cqm=0 / deadzone=21,11 / fast_pskip=0 / chroma_qp_offset=-2 / threads=24 / lookahead_threads=2 / sliced_threads=0 / nr=0 / decimate=0 / interlaced=0 / bluray_compat=0 / constrained_intra=0 / bframes=6 / b_pyramid=2 / b_adapt=2 / b_bias=0 / direct=3 / weightb=1 / open_gop=0 / weightp=2 / keyint=240 / keyint_min=23 / scenecut=40 / intra_refresh=0 / rc_lookahead=60 / rc=2pass / mbtree=1 / bitrate=12100 / ratetol=1.0 / qcomp=0.60 / qpmin=0 / qpmax=69 / qpstep=4 / cplxblur=20.0 / qblur=0.5 / vbv_maxrate=45000 / vbv_bufsize=45000 / nal_hrd=none / ip_ratio=1.40 / aq=1:0.60
Language : English
Default : Yes
Forced : No
Audio #1
ID : 2
Format : AC-3
Format/Info : Audio Coding 3
Format profile : Dolby Digital
Mode extension : CM (complete main)
Format settings, Endianness : Big
Codec ID : A_AC3
Duration : 1h 39mn
Bit rate mode : Constant
Bit rate : 192 Kbps
Channel count : 2 channels
Channel positions : Front: L R
Sampling rate : 48.0 KHz
Bit depth : 16 bits
Compression mode : Lossy
Stream size : 136 MiB (1%)
Title : MVO Премьер Видео
Language : Russian
Default : Yes
Forced : No
Audio #2
ID : 3
Format : AC-3
Format/Info : Audio Coding 3
Mode extension : CM (complete main)
Format settings, Endianness : Big
Codec ID : A_AC3
Duration : 1h 39mn
Bit rate mode : Constant
Bit rate : 192 Kbps
Channel count : 2 channels
Channel positions : Front: L R
Sampling rate : 48.0 KHz
Bit depth : 16 bits
Compression mode : Lossy
Stream size : 136 MiB (1%)
Title : MVO НТВ Беларусь
Language : Russian
Default : No
Forced : No
Audio #3
ID : 4
Format : AC-3
Format/Info : Audio Coding 3
Mode extension : CM (complete main)
Format settings, Endianness : Big
Codec ID : A_AC3
Duration : 1h 39mn
Bit rate mode : Constant
Bit rate : 384 Kbps
Channel count : 6 channels
Channel positions : Front: L C R, Side: L R, LFE
Sampling rate : 48.0 KHz
Bit depth : 16 bits
Compression mode : Lossy
Stream size : 273 MiB (3%)
Title : MVO
Language : Russian
Default : No
Forced : No
Audio #4
ID : 5
Format : AC-3
Format/Info : Audio Coding 3
Mode extension : CM (complete main)
Format settings, Endianness : Big
Codec ID : A_AC3
Duration : 1h 39mn
Bit rate mode : Constant
Bit rate : 640 Kbps
Channel count : 6 channels
Channel positions : Front: L C R, Side: L R, LFE
Sampling rate : 48.0 KHz
Bit depth : 16 bits
Compression mode : Lossy
Stream size : 455 MiB (5%)
Title : AVO Ю.Живов
Language : Russian
Default : No
Forced : No
Audio #5
ID : 6
Format : AC-3
Format/Info : Audio Coding 3
Mode extension : CM (complete main)
Format settings, Endianness : Big
Codec ID : A_AC3
Duration : 1h 39mn
Bit rate mode : Constant
Bit rate : 640 Kbps
Channel count : 6 channels
Channel positions : Front: L C R, Side: L R, LFE
Sampling rate : 48.0 KHz
Bit depth : 16 bits
Compression mode : Lossy
Stream size : 455 MiB (5%)
Language : English
Default : No
Forced : No
Text #1
ID : 7
Format : UTF-8
Codec ID : S_TEXT/UTF8
Codec ID/Info : UTF-8 Plain Text
Language : Russian
Default : No
Forced : No
Text #2
ID : 8
Format : UTF-8
Codec ID : S_TEXT/UTF8
Codec ID/Info : UTF-8 Plain Text
Language : English
Default : No
Forced : No
Text #3
ID : 9
Format : UTF-8
Codec ID : S_TEXT/UTF8
Codec ID/Info : UTF-8 Plain Text
Title : English (SDH)
Language : English
Default : No
Forced : No
Menu
00:00:00.000 : en:00:00:00.000
00:11:30.231 : en:00:11:30.231
00:13:33.146 : en:00:13:33.146
00:22:00.110 : en:00:22:00.110
00:27:03.747 : en:00:27:03.747
00:33:40.894 : en:00:33:40.894
00:44:14.443 : en:00:44:14.443
00:54:51.788 : en:00:54:51.788
01:02:57.065 : en:01:02:57.065
01:13:40.499 : en:01:13:40.499
01:22:05.295 : en:01:22:05.295
01:29:31.241 : en:01:29:31.241
Скриншоты
Скачать

Скачать торрент!

Как скачивать? · Что такое торрент? · Рейтинг и ограничения

Сайт не распространяет и не хранит электронные версии произведений, а лишь предоставляет доступ к создаваемому пользователями каталогу ссылок на торрент-файлы, которые содержат только списки хеш-сумм

[Профиль] [ЛС]
Показать сообщения:    
Ответить на тему

Текущее время: Сегодня 04:02

Часовой пояс: GMT + 4



Вы не можете начинать темы
Вы не можете отвечать на сообщения
Вы не можете редактировать свои сообщения
Вы не можете удалять свои сообщения
Вы не можете голосовать в опросах
Вы не можете прикреплять файлы к сообщениям
Вы не можете скачивать файлы