Любовь за стеной / Liebe Mauer (Питер Тимм / Peter Timm) [2009, Германия, драма, мелодрама, комедия, HDTV 1080i] MVO + Sub Rus

Ответить на тему
 
Автор Сообщение

user ®

Стаж: 7 лет 7 месяцев

Сообщений: 20008

Пост Пост: #1 от 19-Окт-2014 21:40

[Цитировать]

Любовь за стеной / Liebe Mauer
Страна: Германия
Студия: Relevant Film, Tradewind Pictures
Жанр: драма, мелодрама, комедия
Год выпуска: 2009
Продолжительность: 01:37:05
Перевод: Профессиональный (многоголосый закадровый)
Cубтитры: русские
Оригинальная аудиодорожка: нет
Режиссер: Питер Тимм / Peter Timm
В ролях: Фелиситас Волль (Felicitas Woll), Максим Мехмет (Maxim Mehmet), Анна Фишер (Anna Fischer), Томас Тиме (Thomas Thieme), Карл Кранцковски (Karl Kranzkowski), Маргарита Бройх (Margarita Broich), Гизела Троув (Gisela Trowe), Катя Дановски (Katja Danowski)
Описание: Берлин, 1989 год. Пограничник из ГДР Саша случайно знакомится с немкой из Западной Германии по имени Франци. Ее окна как раз выходят на солдатскую караулку Саши у Берлинской стены. Между молодыми людьми возникает сильное чувство. Но на пути их счастья стоят метры бетона и колючей проволоки. К тому же, из-за народных волнений в Восточной Германии, усиливается полицейский контроль…
Доп. информация: Оператор: Ахим Поулхайм
Композитор: Карим Себастьян Елиас
Сэмпл: http://multi-up.com/1006837
Тип релиза: HDTV 1080i
Контейнер: TS
Видео: AVC, 1920х1080, 16:9, 7295 Кбит/сек, 25 fps
Аудио: MPEG Audio, 224 Кбит/сек, 48 КГц, 2 канала
Формат субтитров: teletext
MediaInfo
Общее
Идентификатор : 16 (0x10)
Полное имя : Liebe Mauer_HD.ts
Формат : MPEG-TS
Размер файла : 5,64 Гбайт
Продолжительность : 1 ч. 37 м.
Режим общего битрейта : Переменный
Общий поток : 8320 Кбит/сек
Видео
Идентификатор : 1902 (0x76E)
Идентификатор меню : 92 (0x5C)
Формат : AVC
Формат/Информация : Advanced Video Codec
Профиль формата : High@L4.0
Параметр CABAC формата : Да
Параметр ReFrames формата : 3 кадра
Идентификатор кодека : 27
Продолжительность : 1 ч. 37 м.
Битрейт : 7295 Кбит/сек
Ширина : 1920 пикселей
Высота : 1080 пикселей
Соотношение сторон : 16:9
Частота кадров : 25,000 кадров/сек
Стандарт вещания : PAL
Цветовое пространство : YUV
Субдискретизация насыщенности : 4:2:0
Битовая глубина : 8 бит
Тип развёртки : Чересстрочная
Порядок развёртки : Верхнее поле первое
Бит/(Пиксели*Кадры) : 0.141
Размер потока : 4,94 Гбайт (88%)
Основные цвета : BT.709
Характеристики трансфера : BT.709
Коэффициенты матрицы : BT.709
Аудио #1
Идентификатор : 2902 (0xB56)
Идентификатор меню : 92 (0x5C)
Формат : MPEG Audio
Версия формата : Version 1
Профиль формата : Layer 2
Идентификатор кодека : 4
Продолжительность : 1 ч. 37 м.
Вид битрейта : Постоянный
Битрейт : 224 Кбит/сек
Каналы : 2 канала
Частота : 48,0 КГц
Метод сжатия : С потерями
Задержка видео : 106 мс.
Размер потока : 155 Мбайт (3%)
Язык : std
Язык, дополнительно : Clean effects
Текст
Идентификатор : 33 (0x21)-100
Идентификатор меню : 92 (0x5C)
Формат : Teletext
Меню
Идентификатор : 902 (0x386)
Идентификатор меню : 92 (0x5C)
Продолжительность : 1 ч. 37 м.
Список : 1902 (0x76E) (AVC) / 2902 (0xB56) (MPEG Audio, std) / 3902 (0xF3E) (AC-3, std) / 33 (0x21) ()
Язык : / std / std
Скриншоты
Скачать

Скачать торрент!

Как скачивать? · Что такое торрент? · Рейтинг и ограничения

Сайт не распространяет и не хранит электронные версии произведений, а лишь предоставляет доступ к создаваемому пользователями каталогу ссылок на торрент-файлы, которые содержат только списки хеш-сумм

[Профиль] [ЛС]
Показать сообщения:    
Ответить на тему

Текущее время: Сегодня 19:23

Часовой пояс: GMT + 4



Вы не можете начинать темы
Вы не можете отвечать на сообщения
Вы не можете редактировать свои сообщения
Вы не можете удалять свои сообщения
Вы не можете голосовать в опросах
Вы не можете прикреплять файлы к сообщениям
Вы не можете скачивать файлы