Белые ночи почтальона Алексея Тряпицына (Андрей Кончаловский) [2014, Россия, Драма, HDTVRip]

Ответить на тему
 
Автор Сообщение

user ®

Стаж: 7 лет 7 месяцев

Сообщений: 20008

Пост Пост: #1 от 19-Окт-2014 21:40

[Цитировать]

Белые ночи почтальона Алексея Тряпицына
Год выпуска: 2014
Производство: Продюсерский Центр Андрея Кончаловского
Жанр: Драма
Продолжительность: ~01:29:36
Субтитры: нет
Режиссёр: Андрей Кончаловский
В ролях: Алексей Тряпицын, Ирина Ермолова, Тимур Бондаренко
Описание: Новый проект Андрея Кончаловского продолжает серию работ о русской деревне, которую режиссер начал картиной «История Аси Клячиной, которая любила, да не вышла замуж», а затем продолжил фильмом «Курочка ряба».
Во многих деревнях России из-за их удаленности от городов и бездорожья люди живут как бы вне государства. В таких местах они практически предоставлены сами себе. Зачастую единственным представителем государства в подобных краях становится почтальон. Он – главное связующее звено между немногочисленными жителями заброшенных деревень и цивилизацией. Один из таких почтальонов станет главным героем картины.
В каждой деревне – свои судьбы, свои истории, свои традиции. Понять систему ценностей этих людей, научиться у них ответственности за то, что ты делаешь, – ради этого Андрей Кончаловский и задумал этот фильм.

Качество: HDTVRip
Контейнер: AVI
Видео: XviD, 720x400, ~ 1798 Кбит/сек, 25.00fps 0.25 bit/pixel
Аудио: AC-3, 2 ch, 48,0 КГц, 192 Кбит/с
Сторонней рекламы нет!
MediaInfo
ОбщееПолное имя : D:\Belye.nochi.pochtalona.Alekseya.Tryapitsyna.HDTVRip.MediaClub.aviФормат : AVIФормат/Информация : Audio Video InterleaveРазмер файла : 1,28 ГбайтПродолжительность : 1 ч. 31 м.Общий поток : 2000 Кбит/секПрограмма кодирования : VirtualDubMod 1.5.10.3 | www.virtualdub-fr.org || (build 2550/release)Библиотека кодирования : VirtualDub build 32507/release
ВидеоИдентификатор : 0Формат : MPEG-4 VisualПрофиль формата : Advanced Simple@L5Параметр BVOP формата : 1Параметр QPel формата : НетПараметр GMC формата : Без точки переходаПараметр матрицы формата : ВыборочнаяИдентификатор кодека : XVIDИдентификатор кодека/Подсказка : XviDПродолжительность : 1 ч. 31 м.Битрейт : 1798 Кбит/секШирина : 720 пикселейВысота : 400 пикселейСоотношение сторон : 16:9Частота кадров : 25,000 кадров/секЦветовое пространство : YUVСубдискретизация насыщенности : 4:2:0Битовая глубина : 8 битТип развёртки : ПрогрессивнаяМетод сжатия : С потерямиБит/(Пиксели*Кадры) : 0.250Размер потока : 1,15 Гбайт (90%)Библиотека кодирования : XviD 73
АудиоИдентификатор : 1Формат : AC-3Формат/Информация : Audio Coding 3Расширение режима : CM (complete main)Параметр Endianness формата : BigИдентификатор кодека : 2000Продолжительность : 1 ч. 31 м.Вид битрейта : ПостоянныйБитрейт : 192 Кбит/секКаналы : 2 каналаРасположение каналов : Front: L RЧастота : 48,0 КГцБитовая глубина : 16 битМетод сжатия : С потерямиРазмер потока : 125 Мбайт (10%)Выравнивание : Разделение по промежуткамПродолжительность промежутка : 40 мс. (1,00 видеокадр)Время предзагрузки промежутка : 500 мс.Язык
Раздача группы:
Отдельное спасибо olegka7373 за предоставление материала.
Отдельная громадная благодарность Media-Art-Club за созданный постер к раздаче.
Скриншот c названием фильма Скриншоты
Скачать

Скачать торрент!

Как скачивать? · Что такое торрент? · Рейтинг и ограничения

Сайт не распространяет и не хранит электронные версии произведений, а лишь предоставляет доступ к создаваемому пользователями каталогу ссылок на торрент-файлы, которые содержат только списки хеш-сумм

[Профиль] [ЛС]
Показать сообщения:    
Ответить на тему

Текущее время: Сегодня 05:59

Часовой пояс: GMT + 4



Вы не можете начинать темы
Вы не можете отвечать на сообщения
Вы не можете редактировать свои сообщения
Вы не можете удалять свои сообщения
Вы не можете голосовать в опросах
Вы не можете прикреплять файлы к сообщениям
Вы не можете скачивать файлы