Женщина-пистолет / Gun Woman / Nyotaiju Gun Woman (Курандо Мисуцаки / Kurando Mitsutake) [2014, Япония, фэнтези, боевик, HDRip] VO [den904] + original Jap + sub (rus, ger, dan)

Ответить на тему
 
Автор Сообщение

user ®

Стаж: 13 лет

Сообщений: 15071

Пост Пост: #1 от 19-Окт-2014 18:30

[Цитировать]

Женщина-пистолет / Gun Woman / Nyotaiju Gun Woman- -Страна: Япония
Жанр: фэнтези, боевик
Год выпуска: 2014
Продолжительность: 01:25:33-Перевод: Одноголосый закадровый [den904]-Cубтитры: русские (xixidok), немецкие, голландские [отдельно]
Оригинальная аудиодорожка: японский
Режиссер: Курандо Мисуцаки / Kurando Mitsutake
В ролях: Асами, Каири Нарита, Нориаки Камата, Мэттью Флойд Миллер, Дин Симона, Тошия Агата, Marco Ballare, Марианн Бург, Stacey Chu, D. Olivia Jordan...
Описание: История о японском враче, который клянется отомстить сумасшедшему садисту, убившему его любимую жену. Для этого он разрабатывает план мести и превращает молодую японку в самого смертоносного убийцу в мире..
Релиз от -
Сэмпл: http://multi-up.com/1007107
Качество видео: HDRip
Формат видео: AVI
Видео: MPEG-4 Visual at 1978 Кбит/сек; 704 x 400 (1.760) at 24.000 fps
Аудио: AC-3 at 224 Кбит/сек; 2 канала, 48,0 КГц [VO]
Аудио: AC-3 at 224 Кбит/сек; 2 канала, 48,0 КГц [Jap]
Автор -
MediaInfo
Общее
Полное имя : D:\Фильмы\Азиатские\Женщина-пистолет\Gun Woman.2014.HDRip.XviD.1400MB. rip by [Assassin's Creed]\Gun Woman.2014.HDRip.XviD.1400MB. rip by [Assassin's Creed].avi
Формат : AVI
Формат/Информация : Audio Video Interleave
Размер файла : 1,46 Гбайт
Продолжительность : 1 ч. 25 м.
Общий поток : 2441 Кбит/сек
Программа кодирования : VirtualDubMod 1.5.10.2 (build 2540/release)
Библиотека кодирования : VirtualDubMod build 2540/release
Видео
Идентификатор : 0
Формат : MPEG-4 Visual
Профиль формата : Advanced Simple@L5
Параметр BVOP формата : 1
Параметр QPel формата : Нет
Параметр GMC формата : Без точки перехода
Параметр матрицы формата : Default (MPEG)
Идентификатор кодека : XVID
Идентификатор кодека/Подсказка : XviD
Продолжительность : 1 ч. 25 м.
Битрейт : 1978 Кбит/сек
Ширина : 704 пикселя
Высота : 400 пикселей
Соотношение сторон : 16:9
Частота кадров : 24,000 кадра/сек
Цветовое пространство : YUV
Субдискретизация насыщенности : 4:2:0
Битовая глубина : 8 бит
Тип развёртки : Прогрессивная
Метод сжатия : С потерями
Бит/(Пиксели*Кадры) : 0.293
Размер потока : 1,19 Гбайт (81%)
Библиотека кодирования : XviD 1.2.1 (UTC 2008-12-04)
Аудио #1
Идентификатор : 1
Формат : AC-3
Формат/Информация : Audio Coding 3
Расширение режима : CM (complete main)
Параметр Endianness формата : Big
Идентификатор кодека : 2000
Продолжительность : 1 ч. 25 м.
Вид битрейта : Постоянный
Битрейт : 224 Кбит/сек
Каналы : 2 канала
Расположение каналов : Front: L R
Частота : 48,0 КГц
Битовая глубина : 16 бит
Метод сжатия : С потерями
Размер потока : 138 Мбайт (9%)
Выравнивание : Разделение по промежуткам
Продолжительность промежутка : 42 мс. (1,00 видеокадр)
Время предзагрузки промежутка : 500 мс.
Аудио #2
Идентификатор : 2
Формат : AC-3
Формат/Информация : Audio Coding 3
Расширение режима : CM (complete main)
Параметр Endianness формата : Big
Идентификатор кодека : 2000
Продолжительность : 1 ч. 25 м.
Вид битрейта : Постоянный
Битрейт : 224 Кбит/сек
Каналы : 2 канала
Расположение каналов : Front: L R
Частота : 48,0 КГц
Битовая глубина : 16 бит
Метод сжатия : С потерями
Размер потока : 138 Мбайт (9%)
Выравнивание : Разделение по промежуткам
Продолжительность промежутка : 42 мс. (1,00 видеокадр)
Время предзагрузки промежутка : 500 мс.
Общее
Полное имя : D:\Фильмы\Азиатские\Женщина-пистолет\Gun Woman.2014.HDRip.XviD.1400MB. rip by [Assassin's Creed]\Gun Woman.2014.HDRip.XviD.1400MB. rip by [Assassin's Creed].dub.srt
Формат : SubRip
Размер файла : 31,8 Кбайт
Текст
Формат : SubRip
Метод сжатия : Без потерь
Общее
Полное имя : D:\Фильмы\Азиатские\Женщина-пистолет\Gun Woman.2014.HDRip.XviD.1400MB. rip by [Assassin's Creed]\Gun Woman.2014.HDRip.XviD.1400MB. rip by [Assassin's Creed].ger.srt
Формат : SubRip
Размер файла : 34,9 Кбайт
Текст
Формат : SubRip
Метод сжатия : Без потерь
Общее
Полное имя : D:\Фильмы\Азиатские\Женщина-пистолет\Gun Woman.2014.HDRip.XviD.1400MB. rip by [Assassin's Creed]\Gun Woman.2014.HDRip.XviD.1400MB. rip by [Assassin's Creed].rus.srt
Формат : SubRip
Размер файла : 39,8 Кбайт
Текст
Формат : SubRip
Метод сжатия : Без потерь
Скриншот c названием фильма Скриншоты
Скачать

Скачать торрент! Женщина-пистолет / Gun Woman / Nyotaiju Gun Woman (Курандо Мисуцаки / Kurando Mitsutake) [2014, Япония, фэнтези, боевик, HDRip] VO [den904] + original Jap + sub (rus, ger, dan)

Как скачивать? · Что такое торрент? · Рейтинг и ограничения

Сайт не распространяет и не хранит электронные версии произведений, а лишь предоставляет доступ к создаваемому пользователями каталогу ссылок на торрент-файлы, которые содержат только списки хеш-сумм

[Профиль] [ЛС]
Показать сообщения:    
Ответить на тему

Текущее время: Сегодня 11:46

Часовой пояс: GMT + 4



Вы не можете начинать темы
Вы не можете отвечать на сообщения
Вы не можете редактировать свои сообщения
Вы не можете удалять свои сообщения
Вы не можете голосовать в опросах
Вы не можете прикреплять файлы к сообщениям
Вы не можете скачивать файлы