Геном опасности / Genom Hazard: Aru Tensai Kagakusha No Itsukakan (Ким Сон Су / Kim Seong-soo) [2013, Южная Корея, Япония, Триллер, драма, HDRip] DVO (DeadSno & den904)

Ответить на тему
 
Автор Сообщение

user ®

Стаж: 13 лет

Сообщений: 15071

Пост Пост: #1 от 19-Окт-2014 18:30

[Цитировать]

Геном опасности / Genom Hazard: Aru Tensai Kagakusha No Itsukakan- Год выпуска: 2013
Страна: Южная Корея, Япония
Жанр: Триллер, драма
Продолжительность: 01:59:51-Перевод: Любительский (двухголосый закадровый) (DeadSno & den904)
Cубтитры: Hет-Режиссер: Ким Сон Су / Kim Seong-soo
В ролях: Масато Ибу, Хё Чжин Ким, Йоко Маки, Хидэтоси Нисидзима-Описание: Зайдя домой, Исигами находит в комнате с зажженными свечами труп своей жены. А следом в квартиру вламывается двое неизвестных, но Исигами удается сбежать. Находясь в бегах, он встречает корейского репортера Кан Джи Вон, проявившую интерес к его тяжелому положению и предложившую свою помощь. Мужчина крайне удивлен тем, что свободно говорит по-корейски, ведь он уверен, что не знает языка, да и воспоминания какие-то смутные о прошлой жизни. Кто же он на самом деле?-Сэмпл: http://sendfile.su/1036949-Качество видео: HDRip
Формат видео: AVI
Видео: XviD, 720x304, 23.976fps, 1499kbps
Аудио: MP3, 48000Hz, 2ch, 128kbps

MediaInfo
General
Complete name : D:\3.Торренты\Genome.Hazard.2013.HDRip.avi
Format : AVI
Format/Info : Audio Video Interleave
File size : 1.37 GiB
Duration : 1h 59mn
Overall bit rate : 1 637 Kbps
Writing application : VirtualDubMod 1.5.10.3 | www.virtualdub-fr.org || (build 2550/release)
Writing library : VirtualDubMod build 2550/release
Video
ID : 0
Format : MPEG-4 Visual
Format profile : Simple@L1
Format settings, BVOP : No
Format settings, QPel : No
Format settings, GMC : No warppoints
Format settings, Matrix : Default (H.263)
Codec ID : XVID
Codec ID/Hint : XviD
Duration : 1h 59mn
Bit rate : 1 499 Kbps
Width : 720 pixels
Height : 304 pixels
Display aspect ratio : 2.35:1
Frame rate : 23.976 fps
Color space : YUV
Chroma subsampling : 4:2:0
Bit depth : 8 bits
Scan type : Progressive
Compression mode : Lossy
Bits/(Pixel*Frame) : 0.286
Stream size : 1.26 GiB (92%)
Writing library : Lavc53.33.0
Audio
ID : 1
Format : MPEG Audio
Format version : Version 1
Format profile : Layer 3
Codec ID : 55
Codec ID/Hint : MP3
Duration : 1h 59mn
Bit rate mode : Constant
Bit rate : 128 Kbps
Channel(s) : 2 channels
Sampling rate : 48.0 KHz
Compression mode : Lossy
Stream size : 110 MiB (8%)
Alignment : Aligned on interleaves
Interleave, duration : 42 ms (1.00 video frame)
Interleave, preload duration : 504 ms
Скриншот c названием фильма Скриншоты
Скачать

Скачать торрент! Геном опасности / Genom Hazard: Aru Tensai Kagakusha No Itsukakan (Ким Сон Су / Kim Seong-soo) [2013, Южная Корея, Япония, Триллер, драма, HDRip] DVO (DeadSno & den904)

Как скачивать? · Что такое торрент? · Рейтинг и ограничения

Сайт не распространяет и не хранит электронные версии произведений, а лишь предоставляет доступ к создаваемому пользователями каталогу ссылок на торрент-файлы, которые содержат только списки хеш-сумм

[Профиль] [ЛС]
Показать сообщения:    
Ответить на тему

Текущее время: Сегодня 22:03

Часовой пояс: GMT + 4



Вы не можете начинать темы
Вы не можете отвечать на сообщения
Вы не можете редактировать свои сообщения
Вы не можете удалять свои сообщения
Вы не можете голосовать в опросах
Вы не можете прикреплять файлы к сообщениям
Вы не можете скачивать файлы