Одержимость Майкла Кинга / The Possession of Michael King (Дэвид Юнг / David Jung) [2014, США, ужасы, HDRip] AVO (А.Дольский)

Ответить на тему
 
Автор Сообщение

user ®

Стаж: 7 лет 7 месяцев

Сообщений: 20008

Пост Пост: #1 от 19-Окт-2014 18:30

[Цитировать]

Одержимость Майкла Кинга / The Possession of Michael King


Страна: США
Жанр: ужасы
Год выпуска: 2014
Продолжительность: 01:23:20
Перевод: Авторский (одноголосый) [А.Дольский]
Cубтитры: нет
Режиссер: Дэвид Юнг / David Jung
В ролях:Шэйн Джонсон, Элла Андерсон, Кара Пифко, Кристал Альварез, Томас Арана, Люк Бэйнс, Дейл Дикки, Каллен Дуглас, Майкл Рэй Эскамиллья, Рамона Дж. Фаррингтон
Описание: Главный герой фильма — режиссер-документалист, который не верит ни в Бога, ни в дьявола. Когда умирает его жена, он решает снять фильм о религии и спиритуализме и доказать, что вся мистика — это просто выдумка. В процессе съемок он встречается с демонологами, некромантами и оккультистами, которые испытывают на нем самые темные и сильные заклятия. Эти обряды пробуждают неведомые и безудержные силы зла…
Сэмпл:http://multi-up.com/1007023
Качество: HDRip
Видео:688x384 (1.79:1), 23.976 fps, XviD build 64 ~1117 kbps avg, 0.18 bit/pixel
Аудио: 48 kHz, MPEG Layer 3, 2 ch, ~128.00 kbps avg

MI
General
Complete name : C:\Users\Вячеслав\Downloads\Одержимость Майкла Кинга.2014 (Ш.Джонсон).avi
Format : AVI
Format/Info : Audio Video Interleave
File size : 749 MiB
Duration : 1h 23mn
Overall bit rate : 1 255 Kbps
Writing application : VirtualDubModRus 1.5.10.2 (build 2542/release)
Writing library : VirtualDubMod build 2542/release
Video
ID : 0
Format : MPEG-4 Visual
Format profile : Advanced Simple@L5
Format settings, BVOP : 1
Format settings, QPel : No
Format settings, GMC : No warppoints
Format settings, Matrix : Default (MPEG)
Codec ID : XVID
Codec ID/Hint : XviD
Duration : 1h 23mn
Bit rate : 1 118 Kbps
Width : 688 pixels
Height : 384 pixels
Display aspect ratio : 16:9
Frame rate : 23.976 fps
Color space : YUV
Chroma subsampling : 4:2:0
Bit depth : 8 bits
Scan type : Progressive
Compression mode : Lossy
Bits/(Pixel*Frame) : 0.176
Stream size : 667 MiB (89%)
Writing library : XviD 64
Audio
ID : 1
Format : MPEG Audio
Format version : Version 1
Format profile : Layer 3
Codec ID : 55
Codec ID/Hint : MP3
Duration : 1h 23mn
Bit rate mode : Constant
Bit rate : 128 Kbps
Channel(s) : 2 channels
Sampling rate : 48.0 KHz
Compression mode : Lossy
Stream size : 76.4 MiB (10%)
Alignment : Aligned on interleaves
Interleave, duration : 42 ms (1.00 video frame)
Interleave, preload duration : 504 ms
Writing library : L3.99r
Encoding settings : -m s -V 4 -q 2 -lowpass 17 -b 128
Скриншоты
Скачать

Скачать торрент!

Как скачивать? · Что такое торрент? · Рейтинг и ограничения

Сайт не распространяет и не хранит электронные версии произведений, а лишь предоставляет доступ к создаваемому пользователями каталогу ссылок на торрент-файлы, которые содержат только списки хеш-сумм

[Профиль] [ЛС]
Показать сообщения:    
Ответить на тему

Текущее время: Сегодня 17:43

Часовой пояс: GMT + 4



Вы не можете начинать темы
Вы не можете отвечать на сообщения
Вы не можете редактировать свои сообщения
Вы не можете удалять свои сообщения
Вы не можете голосовать в опросах
Вы не можете прикреплять файлы к сообщениям
Вы не можете скачивать файлы