Заезжий молодец (Кира Ангелина) [2014, Мелодрама, SATRip]

Ответить на тему
 
Автор Сообщение

user ®

Стаж: 7 лет 7 месяцев

Сообщений: 20008

Пост Пост: #1 от 19-Окт-2014 05:25

[Цитировать]

Заезжий молодец
Жанр: Мелодрама
Год выпуска: 2014
Продолжительность: 00:46:35 + 00:45:42
Режиссёр: Кира Ангелина
В ролях: Мария Куликова, Александр Усердин, Алексей Зубков, Артур Псакин, Наталия Просветова, Диана Енакаева, Татьяна Шатилова
Описание: Лариса – сильная женщина, которая давно привыкла сама справляться с любыми проблемами. Она в одиночку воспитывает непростого сына-подростка, тяжёлым трудом зарабатывает на жизнь, и давно отчаялась обрести личное счастье.
Соседка Ларисы, желая завладеть её домом, сводит героиню со своим племянником Олегом, недалеким солдафоном. Устав от бесконечного одиночества, Лариса пытается построить с ним отношения, но сговор вскоре раскрывается...
Неожиданно Лариса становится свидетельницей того, как полиция задерживает на улице мужчину без документов. Проникнувшись к незнакомцу, героиня помогает ему освободиться и платит за него штраф. На следующий день спасённый появляется у неё дома, но вовсе не затем, чтобы отдать долг – он просит Ларису о ночлеге. В гневе героиня прогоняет его, но дальнейшие события в корне меняют отношение женщины к этому человеку, так странно появившемуся в её жизни...
Сэмпл: https://cloud.mail.ru/public/a4838aecf4a7/%D0%97%D0...Rip.by.simka.avi
Качество видео: SATRip
Формат видео: AVI
Видео: XviD, 720x400, 25.00fps, ~1900 Кбит/сек, 0.269 bit/pixel
Аудио: MP3, 48000 Hz, stereo, 192 Кбит/сек
MediaInfo
Общее
Полное имя : U:\Сериалы (2014)\Заезжий молодец (2014)\Заезжий молодец.(01.seriya).2014.XviD.SATRip.by.simka.avi
Формат : AVI
Формат/Информация : Audio Video Interleave
Размер файла : 700 Мбайт
Продолжительность : 46 м.
Общий поток : 2102 Кбит/сек
Программа кодирования : VirtualDubMod 1.5.10.3 | www.virtualdub-fr.org || (build 2550/release)
Библиотека кодирования : VirtualDubMod build 2550/release
Видео
Идентификатор : 0
Формат : MPEG-4 Visual
Профиль формата : Advanced Simple@L5
Параметр BVOP формата : 1
Параметр QPel формата : Нет
Параметр GMC формата : Без точки перехода
Параметр матрицы формата : Default (MPEG)
Идентификатор кодека : XVID
Идентификатор кодека/Подсказка : XviD
Продолжительность : 46 м.
Битрейт : 1900 Кбит/сек
Ширина : 720 пикселей
Высота : 400 пикселей
Соотношение сторон : 16:9
Частота кадров : 25,000 кадров/сек
Цветовое пространство : YUV
Субдискретизация насыщенности : 4:2:0
Битовая глубина : 8 бит
Тип развёртки : Прогрессивная
Метод сжатия : С потерями
Бит/(Пиксели*Кадры) : 0.264
Размер потока : 633 Мбайт (90%)
Библиотека кодирования : XviD 1.2.1 (UTC 2008-12-04)
Аудио
Идентификатор : 1
Формат : MPEG Audio
Версия формата : Version 1
Профиль формата : Layer 3
Режим : Joint stereo
Расширение режима : MS Stereo
Идентификатор кодека : 55
Идентификатор кодека/Подсказка : MP3
Продолжительность : 46 м.
Вид битрейта : Постоянный
Битрейт : 192 Кбит/сек
Каналы : 2 канала
Частота : 48,0 КГц
Метод сжатия : С потерями
Размер потока : 64,0 Мбайт (9%)
Выравнивание : Соединение по промежуткам
Продолжительность промежутка : 40 мс. (1,00 видеокадр)
Время предзагрузки промежутка : 504 мс.
Библиотека кодирования : LAME3.99r
Настройки программы : -m j -V 4 -q 2 -lowpass 18.6 -b 192
Скриншот c названием фильма Скриншоты
-
Релиз группы::
Скачать

Скачать торрент!

Как скачивать? · Что такое торрент? · Рейтинг и ограничения

Сайт не распространяет и не хранит электронные версии произведений, а лишь предоставляет доступ к создаваемому пользователями каталогу ссылок на торрент-файлы, которые содержат только списки хеш-сумм

[Профиль] [ЛС]
Показать сообщения:    
Ответить на тему

Текущее время: Сегодня 14:11

Часовой пояс: GMT + 4



Вы не можете начинать темы
Вы не можете отвечать на сообщения
Вы не можете редактировать свои сообщения
Вы не можете удалять свои сообщения
Вы не можете голосовать в опросах
Вы не можете прикреплять файлы к сообщениям
Вы не можете скачивать файлы