Солнечный луч (Камара Камалова) [1971, Узбекфильм, кукольная анимация, VHSRip]

Ответить на тему
 
Автор Сообщение

user ®

Стаж: 7 лет 7 месяцев

Сообщений: 20008

Пост Пост: #1 от 19-Окт-2014 02:15

[Цитировать]

Солнечный луч
Страна: СССР
Жанр: кукольная анимация
Продолжительность: 00:09:21
Год выпуска: 1971
Режиссёр: Камара Камалова
Описание: Кот сбросил на пол шкатулку с фарфоровой балериной, и она сломала ножку. На плач балерины прибежал храбрый мышонок, и помог балерине склеить ножку и отомстить коту.
Доп. информация: Фильм оцифрован с киноплёнки 16-мм
Качество: VHSRip
Формат: mpg
Видео: MPEG, 4:3, 720х576, 25 fps, 3637 kbps
Аудио: Layer 2, 48 кHz, 2 ch, 256 kbps
Подробные технические данные
ОбщееПолное имя :Солнечный луч.mpgФормат : MPEG-PSРазмер файла : 244 МбайтПродолжительность : 9 м. 21 с.Режим общего битрейта : ПеременныйОбщий поток : 3637 Кбит/сек
ВидеоИдентификатор : 224 (0xE0)Формат : MPEG VideoВерсия формата : Version 2Профиль формата : Main@MainПараметр BVOP формата : ДаПараметр матрицы формата : По умолчаниюПараметр GOP формата : VariableПродолжительность : 9 м. 21 с.Вид битрейта : ПеременныйБитрейт : 3309 Кбит/секШирина : 720 пикселейВысота : 576 пикселейСоотношение сторон : 5:4Частота кадров : 25,000 кадров/секСтандарт вещания : PALЦветовое пространство : YUVСубдискретизация насыщенности : 4:2:0Битовая глубина : 8 битТип развёртки : ПрогрессивнаяМетод сжатия : С потерямиБит/(Пиксели*Кадры) : 0.319Временной код первого кадра : 00:00:00:00Оригинал временного кода : Group of pictures headerРазмер потока : 222 Мбайт (91%)
АудиоИдентификатор : 192 (0xC0)Формат : MPEG AudioВерсия формата : Version 1Профиль формата : Layer 2Продолжительность : 9 м. 21 с.Вид битрейта : ПостоянныйБитрейт : 256 Кбит/секКаналы : 2 каналаЧастота : 48,0 КГцМетод сжатия : С потерямиРазмер потока : 17,1 Мбайт (7%)
Скриншоты
, , ,
Скачать

Скачать торрент!

Как скачивать? · Что такое торрент? · Рейтинг и ограничения

Сайт не распространяет и не хранит электронные версии произведений, а лишь предоставляет доступ к создаваемому пользователями каталогу ссылок на торрент-файлы, которые содержат только списки хеш-сумм

[Профиль] [ЛС]
Показать сообщения:    
Ответить на тему

Текущее время: Сегодня 21:55

Часовой пояс: GMT + 4



Вы не можете начинать темы
Вы не можете отвечать на сообщения
Вы не можете редактировать свои сообщения
Вы не можете удалять свои сообщения
Вы не можете голосовать в опросах
Вы не можете прикреплять файлы к сообщениям
Вы не можете скачивать файлы