Мистер Гоу / Mi-seu-teo Go / Mr. Go (Ким Ён-хва / Kim Yong-hwa) [2013, Южная Корея, драма, комедия, HDRip] VO (PashaUp)

Ответить на тему
 
Автор Сообщение

user ®

Стаж: 13 лет

Сообщений: 15071

Пост Пост: #1 от 19-Окт-2014 02:15

[Цитировать]

Мистер Гоу / Mi-seu-teo Go / Mr. Go
Страна: Южная Корея
Студия: Huayi Brothers, ShowBox, Dexter Films
Жанр: драма, комедия
Год выпуска: 2013
Продолжительность: 2:12:55
Перевод: Одноголосый закадровый PashaUp
Cубтитры: нет
Оригинальная аудиодорожка: нет
Режиссер: Ким Ён-хва / Kim Yong-hwa
В ролях: Дон Иль Сон, Сюй Цзяо, Хи Вон Ким, Кан У Ким, Джо Одагири, Ин Ги Чон, Ын Су Ким, Чон Тхэ Ким, Хи Бон Бён
Описание: 15-летняя Вэйвэй остается одна со своей гориллой Линг Линг, после того как ее дедушка скончался в Китае. У ее дедушки была своя цирковая труппа. Благодаря любви деда к бейсболу, Линг Линг был обучен этой игре…
Релиз от -
Сэмпл: http://multi-up.com/1006951
Тип релиза: HDRip / BDRip 720p
Контейнер: AVI
Видео: XviD, 1890 kbps, 720 х 384 pixels, 23.976 fps
Аудио: AC3, 448 Kbps, 6 channels, Front: L C R, Side: L R, LFE, 48.0 KHz, 16 bits - Rus
КиноПоиск
MediaInfo
General
Complete name : D:\Mr.Go.2013.HDRip.avi
Format : AVI
Format/Info : Audio Video Interleave
Format profile : OpenDML
File size : 2.18 GiB
Duration : 2h 12mn
Overall bit rate : 2 349 Kbps
Writing application : VirtualDubMod 1.5.10.3 | www.virtualdub-fr.org || (build 2550/release)
Writing library : VirtualDubMod build 2550/release
Video
ID : 0
Format : MPEG-4 Visual
Format profile : Advanced Simple@L5
Format settings, BVOP : 1
Format settings, QPel : No
Format settings, GMC : No warppoints
Format settings, Matrix : Default (MPEG)
Codec ID : XVID
Codec ID/Hint : XviD
Duration : 2h 12mn
Bit rate : 1 890 Kbps
Width : 720 pixels
Height : 384 pixels
Display aspect ratio : 1.85:1
Frame rate : 23.976 fps
Color space : YUV
Chroma subsampling : 4:2:0
Bit depth : 8 bits
Scan type : Progressive
Compression mode : Lossy
Bits/(Pixel*Frame) : 0.285
Stream size : 1.75 GiB (80%)
Writing library : XviD 73
Audio
ID : 1
Format : AC-3
Format/Info : Audio Coding 3
Mode extension : CM (complete main)
Format settings, Endianness : Big
Codec ID : 2000
Duration : 2h 12mn
Bit rate mode : Constant
Bit rate : 448 Kbps
Channel(s) : 6 channels
Channel positions : Front: L C R, Side: L R, LFE
Sampling rate : 48.0 KHz
Bit depth : 16 bits
Compression mode : Lossy
Stream size : 426 MiB (19%)
Alignment : Split accross interleaves
Interleave, duration : 42 ms (1.00 video frame)
Interleave, preload duration : 500 ms
Скриншоты
Скачать

Скачать торрент! Мистер Гоу / Mi-seu-teo Go / Mr. Go (Ким Ён-хва / Kim Yong-hwa) [2013, Южная Корея, драма, комедия, HDRip] VO (PashaUp)

Как скачивать? · Что такое торрент? · Рейтинг и ограничения

Сайт не распространяет и не хранит электронные версии произведений, а лишь предоставляет доступ к создаваемому пользователями каталогу ссылок на торрент-файлы, которые содержат только списки хеш-сумм

[Профиль] [ЛС]
Показать сообщения:    
Ответить на тему

Текущее время: Сегодня 18:04

Часовой пояс: GMT + 4



Вы не можете начинать темы
Вы не можете отвечать на сообщения
Вы не можете редактировать свои сообщения
Вы не можете удалять свои сообщения
Вы не можете голосовать в опросах
Вы не можете прикреплять файлы к сообщениям
Вы не можете скачивать файлы