И пробил час / Подходящий день, чтобы сделать это / Good Day for It (Ник Стаглиано / Nick Stagliano) [2011, США, триллер, криминал, BDRip 720p] DVO (R5) + DVO (RG Jolly Roger) + Original Eng

Ответить на тему
 
Автор Сообщение

user ®

Стаж: 7 лет 7 месяцев

Сообщений: 20008

Пост Пост: #1 от 19-Окт-2014 02:15

[Цитировать]

И пробил час / Подходящий день, чтобы сделать это / Good Day for It
Страна: США
Жанр: триллер, криминал
Год выпуска: 2011
Продолжительность: 01:32:23
-
Перевод 1: Профессиональный (двухголосый закадровый) R5
Перевод 2: Любительский (двухголосый закадровый) RG Jolly Roger
Cубтитры: нет
Оригинальная аудиодорожка: английский
-
Режиссер: Ник Стаглиано / Nick Stagliano
В ролях: Роберт Патрик, Хэл Холбрук, Джаред Акоста, Кэти Бейкер, Крис Барнс, Мика Бурем, Джо Флениган, Лэнс Хенриксен, Ричард Брэйк, Мэтт Даффин, Роберт Инглунд
-
Описание: После того как Люк Шейн выдает полиции лидера местной банды Тайруса, он вынужден оставить город и скитаться по штатам, чтобы его дочь Эмили избежала мести банды Тайруса. 15 лет спустя Эмили умоляет отца увидеться с ней. Люк соглашается на встречу в кафе на окраине города. Но отец и дочь оказываются в ловушке — судьба свела с братом Тайрусом Норлсоном и его командой убийц-головорезов. Напряженное противостояние достигло своего пика и для Люка пробил час принять решение — вновь оставить свою дочь или же храбро подняться навстречу кошмару, который войдет в двери кафе.
-

-
Сэмпл: https://www.sendspace.com/file/ap3acw
-
Тип релиза: BDRip 720p
Контейнер: MKV
Видео: 1280x544p (2.35:1), 23.976 fps, 6 174 Kbps
Аудио 1: русский / AC3 / 5.1 / 48 kHz / 448 kbps / 16 bit || DVO
Аудио 2: русский / AC3 / 2.0 / 48 kHz / 192 kbps / 16 bit || DVO
Аудио 3: английский / AC3 / 5.1 / 48 kHz / 448 kbps / 16 bit || ENG
Главы: есть
Доп. информация
Рип от Синемания, добавлены: озвучка от RG Jolly Roger отсюда [url=http://***/forum/viewtopic.php?t=3514851]http://***/forum/viewtopic.php?t=3514851[/url], главы взяты с BDRip-AVC от Mediaclub, заменен оригинал на 5.1 (взят с итальянского BDRemux от HDTracker) Английские субтитры не найдены. Сомнительно: недокроп и bframes=3. Авторам спасибо.
MediaInfo
General
Unique ID : 175253262680603954799526319864088214332 (0x83D88CF70EFAA4EC8E9F3349C591BB3C)
Complete name : C:\Users\ALEX\Downloads\Фильмы\HD\Good Day for It.2011.BDRip.720p.2xRus.Eng.Chpt.mkv
Format : Matroska
Format version : Version 4 / Version 2
File size : 4.69 GiB
Duration : 1h 32mn
Overall bit rate : 7 260 Kbps
Encoded date : UTC 2014-10-16 08:19:44
Writing application : mkvmerge v6.6.0 ('The Edge Of The In Between') built on Dec 1 2013 17:55:00
Writing library : libebml v1.3.0 libmatroska v1.4.1
Video
ID : 1
Format : AVC
Format/Info : Advanced Video Codec
Format profile : High@L4.1
Format settings, CABAC : Yes
Format settings, ReFrames : 5 frames
Codec ID : V_MPEG4/ISO/AVC
Duration : 1h 32mn
Bit rate : 6 174 Kbps
Width : 1 280 pixels
Height : 544 pixels
Display aspect ratio : 2.35:1
Frame rate mode : Constant
Frame rate : 23.976 fps
Color space : YUV
Chroma subsampling : 4:2:0
Bit depth : 8 bits
Scan type : Progressive
Bits/(Pixel*Frame) : 0.370
Stream size : 3.89 GiB (83%)
Title : СПАМ rip by [EgL]
Writing library : x264 core 133 r2334 a3ac64b
Encoding settings : cabac=1 / ref=5 / deblock=1:0:0 / analyse=0x3:0x133 / me=umh / subme=10 / psy=1 / psy_rd=1.00:0.15 / mixed_ref=1 / me_range=32 / chroma_me=1 / trellis=2 / 8x8dct=1 / cqm=0 / deadzone=21,11 / fast_pskip=0 / chroma_qp_offset=-3 / threads=6 / lookahead_threads=1 / sliced_threads=0 / nr=0 / decimate=1 / interlaced=0 / bluray_compat=0 / constrained_intra=0 / bframes=3 / b_pyramid=2 / b_adapt=2 / b_bias=0 / direct=3 / weightb=1 / open_gop=0 / weightp=2 / keyint=240 / keyint_min=23 / scenecut=40 / intra_refresh=0 / rc=2pass / mbtree=0 / bitrate=6174 / ratetol=2.0 / qcomp=0.60 / qpmin=10 / qpmax=51 / qpstep=4 / cplxblur=20.0 / qblur=0.5 / ip_ratio=1.40 / pb_ratio=1.00 / aq=1:1.00
Language : Italian
Default : No
Forced : No
Audio #1
ID : 2
Format : AC-3
Format/Info : Audio Coding 3
Mode extension : CM (complete main)
Format settings, Endianness : Big
Codec ID : A_AC3
Duration : 1h 32mn
Bit rate mode : Constant
Bit rate : 448 Kbps
Channel(s) : 6 channels
Channel positions : Front: L C R, Side: L R, LFE
Sampling rate : 48.0 KHz
Bit depth : 16 bits
Compression mode : Lossy
Stream size : 296 MiB (6%)
Title : DVO (R5)
Language : Russian
Default : No
Forced : No
Audio #2
ID : 3
Format : AC-3
Format/Info : Audio Coding 3
Mode extension : CM (complete main)
Format settings, Endianness : Big
Codec ID : A_AC3
Duration : 1h 32mn
Bit rate mode : Constant
Bit rate : 192 Kbps
Channel(s) : 2 channels
Channel positions : Front: L R
Sampling rate : 48.0 KHz
Bit depth : 16 bits
Compression mode : Lossy
Stream size : 127 MiB (3%)
Title : DVO (RG Jolly Roger)
Language : Russian
Default : No
Forced : No
Audio #3
ID : 4
Format : AC-3
Format/Info : Audio Coding 3
Mode extension : CM (complete main)
Format settings, Endianness : Big
Codec ID : A_AC3
Duration : 1h 32mn
Bit rate mode : Constant
Bit rate : 448 Kbps
Channel(s) : 6 channels
Channel positions : Front: L C R, Side: L R, LFE
Sampling rate : 48.0 KHz
Bit depth : 16 bits
Compression mode : Lossy
Stream size : 296 MiB (6%)
Title : Original
Language : English
Default : No
Forced : No
Menu
00:00:00.000 : :Chapter 01
00:00:00.417 : :Chapter 02
00:00:55.472 : :Chapter 03
00:04:00.240 : :Chapter 04
00:08:00.480 : :Chapter 05
00:12:00.720 : :Chapter 06
00:16:00.960 : :Chapter 07
00:20:01.200 : :Chapter 08
00:24:01.440 : :Chapter 09
00:28:01.679 : :Chapter 10
00:32:01.920 : :Chapter 11
00:36:02.160 : :Chapter 12
00:40:02.400 : :Chapter 13
00:44:02.640 : :Chapter 14
00:48:02.880 : :Chapter 15
00:52:03.120 : :Chapter 16
00:56:03.360 : :Chapter 17
01:00:03.600 : :Chapter 18
01:04:03.840 : :Chapter 19
01:08:04.080 : :Chapter 20
01:12:04.320 : :Chapter 21
01:16:04.560 : :Chapter 22
01:20:04.800 : :Chapter 23
01:24:05.040 : :Chapter 24
01:28:05.280 : :Chapter 25
01:32:05.520 : :Chapter 26
Скриншоты
Скачать

Скачать торрент!

Как скачивать? · Что такое торрент? · Рейтинг и ограничения

Сайт не распространяет и не хранит электронные версии произведений, а лишь предоставляет доступ к создаваемому пользователями каталогу ссылок на торрент-файлы, которые содержат только списки хеш-сумм

[Профиль] [ЛС]
Показать сообщения:    
Ответить на тему

Текущее время: Сегодня 07:58

Часовой пояс: GMT + 4



Вы не можете начинать темы
Вы не можете отвечать на сообщения
Вы не можете редактировать свои сообщения
Вы не можете удалять свои сообщения
Вы не можете голосовать в опросах
Вы не можете прикреплять файлы к сообщениям
Вы не можете скачивать файлы