Квартет / Quartet (Дастин Хоффман / Dustin Hoffman) [2012, Великобритания, Драмы, Комедии, HDTV 1080i] Dub + Sub Rus + Original Eng

Ответить на тему
 
Автор Сообщение

user ®

Стаж: 7 лет 7 месяцев

Сообщений: 20008

Пост Пост: #1 от 19-Окт-2014 02:15

[Цитировать]

Kвapтeт / Quаrtеt
Страна: Великобритания
Студия: BBC
Жанр: Драмы, Комедии
Год выпуска: 2012
Продолжительность: 01:30:04
Перевод: Профессиональный (многоголосый закадровый)
Cубтитры: русские
Оригинальная аудиодорожка: английский
Режиссер: Дастин Хоффман / Dustin Hoffman
В ролях: Мэгги Смит, Том Кортни, Билли Коннолли, Полин Коллинз, Майкл Гэмбон, Шеридан Смит, Эндрю Сакс, Гвинет Джонс, Тревор Пикок, Дэвид Райалл и др.
Описание: Картина основана на одноимённой пьесе Рональда Харвуда. Действие развивается в доме престарелых артистов оперной сцены. Ежегодно 10 октября здесь концертом отмечают день рождения Верди. Вновь прибывшая постоялица, в прошлом примадонна, категорически отказывается принять в нём участие. Но шоу всё-таки состоится.
Овации, цветы и поклонники остались в прошлом, но бодрые старички из Бичем-Хаус, дома ветеранов британской оперной сцены, не намерены сдаваться! Каждый год в день рождения Верди они устраивают гала-концерт. «Гвоздем программы» на этот раз должна стать новая постоялица — бывшая прима и настоящая стерва Джин. Будет ли ее воссоединение с давними партнерами успешным? Получится ли у артистов отрешиться от былых амбиций и прошлых обид и, может, даже воскресить забытую любовь?
Сэмпл: http://multi-up.com/1006737
Тип релиза: HDTV 1080i
Контейнер: TS
Видео: AVC, 1920х1080, 16:9, 6699 Кбит/сек, 25 fps
Аудио: (русский) AC-3, 384 Кбит/сек, 48 КГц, 6 каналов
Аудио 2: (english) MPEG Audio, 192 Кбит/сек, 48 КГц, 2 канала
Формат субтитров: Теletext
MediaInfo
Общее
Идентификатор : 16 (0x10)
Полное имя : Quаrtеt.ts
Формат : MPEG-TS
Размер файла : 4,82 Гбайт
Продолжительность : 1 ч. 30 м.
Режим общего битрейта : Переменный
Общий поток : 7660 Кбит/сек
Видео
Идентификатор : 1812 (0x714)
Идентификатор меню : 812 (0x32C)
Формат : AVC
Формат/Информация : Advanced Video Codec
Профиль формата : High@L4.0
Параметр CABAC формата : Да
Параметр ReFrames формата : 4 кадра
Идентификатор кодека : 27
Продолжительность : 1 ч. 30 м.
Битрейт : 6699 Кбит/сек
Ширина : 1920 пикселей
Высота : 1080 пикселей
Соотношение сторон : 16:9
Частота кадров : 25,000 кадров/сек
Стандарт вещания : PAL
Цветовое пространство : YUV
Субдискретизация насыщенности : 4:2:0
Битовая глубина : 8 бит
Тип развёртки : MBAFF
Бит/(Пиксели*Кадры) : 0.129
Размер потока : 4,21 Гбайт (87%)
Основные цвета : BT.709
Характеристики трансфера : BT.709
Коэффициенты матрицы : BT.709
Аудио #2
Идентификатор : 3812 (0xEE4)
Идентификатор меню : 812 (0x32C)
Формат : MPEG Audio
Версия формата : Version 1
Профиль формата : Layer 2
Идентификатор кодека : 4
Продолжительность : 1 ч. 30 м.
Вид битрейта : Постоянный
Битрейт : 192 Кбит/сек
Каналы : 2 канала
Частота : 48,0 КГц
Метод сжатия : С потерями
Задержка видео : 122 мс.
Размер потока : 124 Мбайт (3%)
Язык : English
Язык, дополнительно : Clean effects
Аудио #1
Идентификатор : 4812 (0x12CC)
Идентификатор меню : 812 (0x32C)
Формат : AC-3
Формат/Информация : Audio Coding 3
Расширение режима : CM (complete main)
Параметр Endianness формата : Big
Идентификатор кодека : 6
Продолжительность : 1 ч. 30 м.
Вид битрейта : Постоянный
Битрейт : 384 Кбит/сек
Каналы : 6 каналов
Расположение каналов : Front: L C R, Side: L R, LFE
Частота : 48,0 КГц
Битовая глубина : 16 бит
Метод сжатия : С потерями
Задержка видео : 233 мс.
Размер потока : 247 Мбайт (5%)
Язык : русский
Язык, дополнительно : Clean effects
Текст
Идентификатор : 63 (0x3F)-100
Идентификатор меню : 812 (0x32C)
Формат : Teletext
Меню
Идентификатор : 812 (0x32C)
Идентификатор меню : 812 (0x32C)
Продолжительность : 1 ч. 30 м.
Список : 1812 (0x714) (AVC) / 3812 (0xEE4) (MPEG Audio, English) / 4812 (0x12CC) (AC-3, std) / 63 (0x3F) ()
Язык : / English / std
Скриншоты
Скачать

Скачать торрент!

Как скачивать? · Что такое торрент? · Рейтинг и ограничения

Сайт не распространяет и не хранит электронные версии произведений, а лишь предоставляет доступ к создаваемому пользователями каталогу ссылок на торрент-файлы, которые содержат только списки хеш-сумм

[Профиль] [ЛС]
Показать сообщения:    
Ответить на тему

Текущее время: Сегодня 19:42

Часовой пояс: GMT + 4



Вы не можете начинать темы
Вы не можете отвечать на сообщения
Вы не можете редактировать свои сообщения
Вы не можете удалять свои сообщения
Вы не можете голосовать в опросах
Вы не можете прикреплять файлы к сообщениям
Вы не можете скачивать файлы