Zapped. Волшебное приложение / Zapped (Питер ДеЛуис / Piter DeLuis) [2014, Канада, США, Фэнтези, DVB] Dub (Disney)

Ответить на тему
 
Автор Сообщение

user ®

Стаж: 7 лет 7 месяцев

Сообщений: 20008

Пост Пост: #1 от 19-Окт-2014 02:15

[Цитировать]

Zapped. Волшебное приложение / Zapped Страна: Канада, США
Жанр: Фэнтези
Год выпуска: 2014
Продолжительность: 01:29:50
Перевод: Профессиональный (дублированный) (Disney)
Cубтитры: нет
Режиссер: Питер ДеЛуис / Piter DeLuis
В ролях: Зендая Коулман, Шанель Пелозо, Спенсер Болдмэн, Эмилия МакКарти, Адам ДиМарко, Уильям Энскау, Алекс Паунович, Люсия Уолтерс, Джедидайя Гудакр
Описание: В центре всех событий — 16-летняя Зои Стивенс, квалифицированная танцовщица и студентка-отличница, которая с трудом приспосабливается к новой школе, новой команде танцоров, новому отчиму, трем новым шумным сводным братьям и непослушной собаке. Но все меняется, когда во время дрессировки собаки, проходящие мимо парни начинают снимать её на свои смартфоны.
Сэмпл: http://rusfolder.com/42021482

Качество видео: DVB
Формат видео: TS
Видео: AVC/H.264, 720x576 (4:3), 25 fps, 2 323 kbps
Аудио: Mp-2, 48 kHz, 2 ch, 192 kbps
MediaInfo
Видео
Идентификатор : 2801 (0xAF1)
Идентификатор меню : 1 (0x1)
Формат : AVC
Формат/Информация : Advanced Video Codec
Профиль формата : Main@L3.0
Параметр CABAC формата : Да
Параметр ReFrames формата : 3 кадра
Идентификатор кодека : 27
Продолжительность : 1 ч. 29 м.
Битрейт : 2323 Кбит/сек
Ширина : 720 пикселей
Высота : 576 пикселей
Соотношение сторон : 4:3
Частота кадров : 25,000 кадров/сек
Стандарт вещания : Component
Цветовое пространство : YUV
Субдискретизация насыщенности : 4:2:0
Битовая глубина : 8 бит
Тип развёртки : Прогрессивная
Бит/(Пиксели*Кадры) : 0.224
Размер потока : 1,46 Гбайт (88%)
Основные цвета : BT.601 PAL
Характеристики трансфера : BT.470 System B, BT.470 System G
Коэффициенты матрицы : BT.601
Аудио
Идентификатор : 2802 (0xAF2)
Идентификатор меню : 1 (0x1)
Формат : MPEG Audio
Версия формата : Version 1
Профиль формата : Layer 2
Идентификатор кодека : 3
Продолжительность : 1 ч. 29 м.
Вид битрейта : Постоянный
Битрейт : 192 Кбит/сек
Каналы : 2 канала
Частота : 48,0 КГц
Метод сжатия : С потерями
Размер потока : 123 Мбайт (7%)
Язык : Russian
Скриншот c названием фильма Скриншоты
Скачать

Скачать торрент!

Как скачивать? · Что такое торрент? · Рейтинг и ограничения

Сайт не распространяет и не хранит электронные версии произведений, а лишь предоставляет доступ к создаваемому пользователями каталогу ссылок на торрент-файлы, которые содержат только списки хеш-сумм

[Профиль] [ЛС]
Показать сообщения:    
Ответить на тему

Текущее время: Сегодня 07:58

Часовой пояс: GMT + 4



Вы не можете начинать темы
Вы не можете отвечать на сообщения
Вы не можете редактировать свои сообщения
Вы не можете удалять свои сообщения
Вы не можете голосовать в опросах
Вы не можете прикреплять файлы к сообщениям
Вы не можете скачивать файлы