Принцесса Монако / Grace of Monaco (Оливье Даан / Olivier Dahan) [2014, Франция, США, Бельгия, Италия, Швейцария, драма, мелодрама, биография, HDRip] Dub

Ответить на тему
 
Автор Сообщение

user ®

Стаж: 7 лет 7 месяцев

Сообщений: 20008

Пост Пост: #1 от 19-Окт-2014 02:15

[Цитировать]

Принцесса Монако / Grace of Monaco

Год выпуска: 2014
Страна: Франция, США, Бельгия, Италия, Швейцария
Жанр: драма, мелодрама, биография
Продолжительность: 01:42:20
Перевод: Професиональный (полное дублирование) Лицензия
Cубтитры: нет
Режиссер: Оливье Даан / Olivier Dahan
В ролях: Николь Кидман, Роджер Эштон-Гриффитс, Фрэнк Ланджелла, Тим Рот, Николас Фэррел, Дерек Джекоби, Пас Вега, Майло Вентимилья, Паркер Поузи, Джеральдин Сомервилль
Описание: Весь Голливуд лежал у ее ног — роскошные виллы, oскаровские приемы и шикарные мужчины, но она выбрала королевский дворец, аристократические балы и благородного принца из маленькой страны недалеко от Франции. Она была королевой Голливуда, но предпочла стать Принцессой Монако.
Автор: Scarabey
Качество видео: HDRip (исходник BDRip 720p)
Формат видео: AVI
Видео: 688x288 (2.39:1), 24 fps, XviD build 73 ~880 kbps avg, 0.19 bit/pixel
Аудио: 48 kHz, MPEG Layer 3, 2 ch, ~128.00 kbps avg

Сэмпл MediaInfo
Общее
Полное имя : D:\Фильмы\Princessa.Monako.2014_HDRip_[Scarabey].avi
Формат : AVI
Формат/Информация : Audio Video Interleave
Размер файла : 745 Мбайт
Продолжительность : 1 ч. 42 м.
Общий поток : 1018 Кбит/сек
Программа кодирования : VirtualDubMod 1.5.10.3 | www.virtualdub-fr.org || (build 2550/release)
Библиотека кодирования : VirtualDubMod build 2550/release
Видео
Идентификатор : 0
Формат : MPEG-4 Visual
Профиль формата : Advanced Simple@L5
Параметр BVOP формата : 1
Параметр QPel формата : Нет
Параметр GMC формата : Без точки перехода
Параметр матрицы формата : Выборочная
Идентификатор кодека : XVID
Идентификатор кодека/Подсказка : XviD
Продолжительность : 1 ч. 42 м.
Битрейт : 880 Кбит/сек
Ширина : 688 пикселей
Высота : 288 пикселей
Соотношение сторон : 2,40:1
Частота кадров : 24,000 кадра/сек
Цветовое пространство : YUV
Субдискретизация насыщенности : 4:2:0
Битовая глубина : 8 бит
Тип развёртки : Прогрессивная
Метод сжатия : С потерями
Бит/(Пиксели*Кадры) : 0.185
Размер потока : 644 Мбайт (87%)
Библиотека кодирования : XviD 73
Аудио
Идентификатор : 1
Формат : MPEG Audio
Версия формата : Version 1
Профиль формата : Layer 3
Идентификатор кодека : 55
Идентификатор кодека/Подсказка : MP3
Продолжительность : 1 ч. 42 м.
Вид битрейта : Постоянный
Битрейт : 128 Кбит/сек
Каналы : 2 канала
Частота : 48,0 КГц
Метод сжатия : С потерями
Размер потока : 93,7 Мбайт (13%)
Выравнивание : Соединение по промежуткам
Продолжительность промежутка : 42 мс. (1,00 видеокадр)
Время предзагрузки промежутка : 504 мс.
Библиотека кодирования : LAME3.99r
Настройки программы : -m s -V 4 -q 2 -lowpass 17 -b 128
Скриншот с названием фильма Скриншоты
Скачать

Скачать торрент!

Как скачивать? · Что такое торрент? · Рейтинг и ограничения

Сайт не распространяет и не хранит электронные версии произведений, а лишь предоставляет доступ к создаваемому пользователями каталогу ссылок на торрент-файлы, которые содержат только списки хеш-сумм

[Профиль] [ЛС]
Показать сообщения:    
Ответить на тему

Текущее время: Сегодня 22:14

Часовой пояс: GMT + 4



Вы не можете начинать темы
Вы не можете отвечать на сообщения
Вы не можете редактировать свои сообщения
Вы не можете удалять свои сообщения
Вы не можете голосовать в опросах
Вы не можете прикреплять файлы к сообщениям
Вы не можете скачивать файлы