Ив Сен-Лоран / Yves Saint Laurent (Джалиль Леспер / Jalil Lespert) [2014, Франция, драма, биография, HDRip] MVO

Ответить на тему
 
Автор Сообщение

user ®

Стаж: 7 лет 7 месяцев

Сообщений: 20008

Пост Пост: #1 от 19-Окт-2014 02:15

[Цитировать]

Ив Сен-Лоран / Yves Saint Laurent

Год выпуска: 2014
Страна: Франция
Жанр: драма, биография
Продолжительность: 01:45:21
Перевод: Профессиональный (многоголосый, закадровый)
Cубтитры: нет
Режиссер: Джалиль Леспер / Jalil Lespert
В ролях: Пьер Нинэ, Гийом Гальенн, Шарлотта Ле Бон, Лаура Смет, Мари де Вильпен, Николай Кински, Рубен Алвес, Астрид Ветналл, Марианн Басле, Аделин О’Эрми
Описание: В январе 1958 года в Париже произошло событие, заметно повлиявшее на развитие мировой моды: вместо скончавшегося не так давно Кристиана Диора управлять крупными домами моды назначили Ива Сен Лорана – 21-летнего молодого человека с уникальным чувством стиля и массой интересных идей в запасе. Первая же его коллекция привлекла к себе живое внимание публики и вызвала настоящий фурор.
Однако для молодого кутюрье это был лишь первый шаг в долгой и плодотворной карьере, в которой не обошлось без падений и взлетов. Впереди у него были творческие терзания, увлечение наркотиками и другие не менее опасные развлечения, а также долговременное деловое и интимное партнерство с Пьером Берже и создание новых коллекций. Ив Сен Лоран стал не только создателем многочисленных революционных коллекций и стиля «унисекс», а также первым, кто обратил внимание на темнокожих манекенщиц, но и настоящим воплощением высокого вкуса во всем, что касалось моды.
Автор: Scarabey
Качество видео: HDRip (исходник BDRip 720p)
Формат видео: AVI
Видео: 720x304 (2.37:1), 24 fps, XviD build 73 ~1765 kbps avg, 0.34 bit/pixel
Аудио: 48 kHz, AC3 Dolby Digital, 2/0 (L,R) ch, ~192 kbps

Сэмпл MediaInfo
Общее
Полное имя : D:\Фильмы\Yves.Saint.Laurent.2014_HDRip__[Scarabey].avi
Формат : AVI
Формат/Информация : Audio Video Interleave
Размер файла : 1,45 Гбайт
Продолжительность : 1 ч. 45 м.
Общий поток : 1967 Кбит/сек
Программа кодирования : VirtualDubMod 1.5.10.3 | www.virtualdub-fr.org || (build 2550/release)
Библиотека кодирования : VirtualDubMod build 2550/release
Видео
Идентификатор : 0
Формат : MPEG-4 Visual
Профиль формата : Advanced Simple@L5
Параметр BVOP формата : 1
Параметр QPel формата : Нет
Параметр GMC формата : Без точки перехода
Параметр матрицы формата : Выборочная
Идентификатор кодека : XVID
Идентификатор кодека/Подсказка : XviD
Продолжительность : 1 ч. 45 м.
Битрейт : 1766 Кбит/сек
Ширина : 720 пикселей
Высота : 304 пикселя
Соотношение сторон : 2,35:1
Частота кадров : 24,000 кадра/сек
Цветовое пространство : YUV
Субдискретизация насыщенности : 4:2:0
Битовая глубина : 8 бит
Тип развёртки : Прогрессивная
Метод сжатия : С потерями
Бит/(Пиксели*Кадры) : 0.336
Размер потока : 1,30 Гбайт (90%)
Библиотека кодирования : XviD 73
Аудио
Идентификатор : 1
Формат : AC-3
Формат/Информация : Audio Coding 3
Расширение режима : CM (complete main)
Параметр Endianness формата : Big
Идентификатор кодека : 2000
Продолжительность : 1 ч. 45 м.
Вид битрейта : Постоянный
Битрейт : 192 Кбит/сек
Каналы : 2 канала
Расположение каналов : Front: L R
Частота : 48,0 КГц
Битовая глубина : 16 бит
Метод сжатия : С потерями
Размер потока : 145 Мбайт (10%)
Выравнивание : Разделение по промежуткам
Продолжительность промежутка : 42 мс. (1,00 видеокадр)
Время предзагрузки промежутка : 500 мс.
Скриншот с названием фильма Скриншоты
Скачать

Скачать торрент!

Как скачивать? · Что такое торрент? · Рейтинг и ограничения

Сайт не распространяет и не хранит электронные версии произведений, а лишь предоставляет доступ к создаваемому пользователями каталогу ссылок на торрент-файлы, которые содержат только списки хеш-сумм

[Профиль] [ЛС]
Показать сообщения:    
Ответить на тему

Текущее время: Сегодня 09:52

Часовой пояс: GMT + 4



Вы не можете начинать темы
Вы не можете отвечать на сообщения
Вы не можете редактировать свои сообщения
Вы не можете удалять свои сообщения
Вы не можете голосовать в опросах
Вы не можете прикреплять файлы к сообщениям
Вы не можете скачивать файлы