Неистовство: Смертный приговор / Ярость: Смертная казнь / Rampage: Capital Punishment (Уве Болл / Uwe Boll) [2014, Канада, Германия, Боевик, триллер, HDRip] VO (Александр Харченко)

Ответить на тему
 
Автор Сообщение

user ®

Стаж: 7 лет 7 месяцев

Сообщений: 20008

Пост Пост: #1 от 18-Окт-2014 19:35

[Цитировать]

Неистовство: Смертный приговор / Ярость: Смертная казнь / Rampage: Capital Punishment
Страна: Канада, Германия
Жанр: Боевик, триллер
Год выпуска: 2014
Продолжительность: 01:32:53
Перевод: Одноголосый закадровый Александр Харченко
Cубтитры: нет
Оригинальная аудиодорожка: нет
Режиссер: Уве Болл / Uwe Boll
В ролях: Брендан Флетчер, Михаэлла Манн, Нэйтан Лефельдт, Брюс Блэйн, Майк Допуд
Описание: Билл Уильямсон наносит новый удар. Спустя два года он берет в заложники персонал телеканала с целью воплотить еще один гениальный план…
Качество видео: HDRip
Формат видео: AVI
Видео: 640x352 (2,35:1), 24 fps, XviD build 50 ~989 kbps avg, 0.183 bit/pixel
Аудио: 48 kHz, MPEG Layer 3, 2 ch, ~128.00 kbps avg ВНИМАНИЕ!!! Фильм содержит сцены жестокости и насилия, а также обсценную лексику.MediaInfo
General
Complete name : D:\ФИЛЬМЫ И ПРОЧЕЕ\Ярость 2.avi
Format : AVI
Format/Info : Audio Video Interleave
File size : 748 MiB
Duration : 1h 32mn
Overall bit rate : 1 126 Kbps
Writing application : VirtualDubMod 1.5.10.2 (build 2540/release)
Writing library : VirtualDubMod build 2540/release
Video #0
ID : 0
Format : MPEG-4 Visual
Format profile : AdvancedSimple@L5
Format settings, BVOP : Yes
Format settings, QPel : No
Format settings, GMC : No warppoints
Format settings, Matrix : Default (H.263)
Codec ID : XVID
Codec ID/Hint : XviD
Duration : 1h 32mn
Bit rate : 989 Kbps
Width : 640 pixels
Height : 352 pixels
Display aspect ratio : 16:9
Frame rate : 23.976 fps
Resolution : 24 bits
Colorimetry : 4:2:0
Scan type : Progressive
Bits/(Pixel*Frame) : 0.183
Stream size : 657 MiB (88%)
Writing library : XviD 1.2.1 (UTC 2008-12-04)
Audio #1
ID : 1
Format : MPEG Audio
Format version : Version 1
Format profile : Layer 3
Codec ID : 55
Codec ID/Hint : MP3
Duration : 1h 32mn
Bit rate mode : Constant
Bit rate : 128 Kbps
Channel(s) : 2 channels
Sampling rate : 48.0 KHz
Resolution : 16 bits
Stream size : 85.0 MiB (11%)
Alignment : Aligned on interleaves
Interleave, duration : 42 ms (1.00 video frame)
Interleave, preload duration : 504 ms
Скриншот c названием фильма Скриншоты
Скачать

Скачать торрент!

Как скачивать? · Что такое торрент? · Рейтинг и ограничения

Сайт не распространяет и не хранит электронные версии произведений, а лишь предоставляет доступ к создаваемому пользователями каталогу ссылок на торрент-файлы, которые содержат только списки хеш-сумм

[Профиль] [ЛС]
Показать сообщения:    
Ответить на тему

Текущее время: Сегодня 12:51

Часовой пояс: GMT + 4



Вы не можете начинать темы
Вы не можете отвечать на сообщения
Вы не можете редактировать свои сообщения
Вы не можете удалять свои сообщения
Вы не можете голосовать в опросах
Вы не можете прикреплять файлы к сообщениям
Вы не можете скачивать файлы