Канал / The Canal (Иван Кэвэна / Ivan Kavanagh) [2014, Ирландия, Ужасы, мистика, триллер, WEB-DLRip] VO (ХиХиДок) + Original Eng

Ответить на тему
 
Автор Сообщение

user ®

Стаж: 7 лет 7 месяцев

Сообщений: 20008

Пост Пост: #1 от 18-Окт-2014 19:35

[Цитировать]

Канал / The Canal
Страна: Ирландия
Жанр: Ужасы, мистика, триллер
Год выпуска: 2014
Продолжительность: 01:33:40
Перевод: Одноголосый закадровый ХиХиДок
Cубтитры: нет
Оригинальная аудиодорожка: английский
Режиссер: Иван Кэвэна / Ivan Kavanagh
В ролях: Руперт Эванс, Антония Кэмпбелл-Хьюджес, Стив Орам, Ханна Хекстра, Kelly Byrne, Аннеке Блок, Энтони Мерфи,Calum Heath, Карл Шаабан
Описание: Кино-архивариус Дэвид Уильямс живет с женой Элис и их пятилетним сыном Билли. Однажды Дэвид начинает подозревать, что Элис изменяет ему. Его беспокойство усугубляется, когда на работе он случайно натыкается на катушку с фильмом 1902 года, из которого он узнает, что его дом был местом, где произошла серия жестоких убийств, а убийцей был мужчина по имени Уильям Джексон, который убил свою жену за измену, а затем утопил их детей в канале.

Качество видео: WEB-DLRip
Формат видео: AVI
Видео: Xvid 720x304 23.976fps 1696kbps
Аудио 1: MP3 44100Hz stereo 192kbps [Russian]
Аудио 2: Dolby AC3 48000Hz stereo 192kbps [English]
MediaInfo
General
Complete name : E:\Films\New\The.Canal.2014.avi
Format : AVI
Format/Info : Audio Video Interleave
File size : 1.37 GiB
Duration : 1h 33mn
Overall bit rate : 2 095 Kbps
Writing application : VirtualDubMod 1.5.10.3 | www.virtualdub-fr.org || (build 2550/release)
Writing library : VirtualDubMod build 2550/release
Video
ID : 0
Format : MPEG-4 Visual
Format profile : Advanced Simple@L5
Format settings, BVOP : 1
Format settings, QPel : Yes
Format settings, GMC : No warppoints
Format settings, Matrix : Custom
Codec ID : XVID
Codec ID/Hint : XviD
Duration : 1h 33mn
Bit rate : 1 697 Kbps
Width : 720 pixels
Height : 304 pixels
Display aspect ratio : 2.35:1
Frame rate : 23.976 fps
Color space : YUV
Chroma subsampling : 4:2:0
Bit depth : 8 bits
Scan type : Progressive
Compression mode : Lossy
Bits/(Pixel*Frame) : 0.323
Stream size : 1.11 GiB (81%)
Writing library : XviD 73
Audio #1
ID : 1
Format : MPEG Audio
Format version : Version 1
Format profile : Layer 3
Codec ID : 55
Codec ID/Hint : MP3
Duration : 1h 33mn
Bit rate mode : Constant
Bit rate : 192 Kbps
Channel(s) : 2 channels
Sampling rate : 44.1 KHz
Compression mode : Lossy
Stream size : 129 MiB (9%)
Alignment : Split accross interleaves
Interleave, duration : 42 ms (1.00 video frame)
Interleave, preload duration : 500 ms
Audio #2
ID : 2
Format : AC-3
Format/Info : Audio Coding 3
Mode extension : CM (complete main)
Format settings, Endianness : Big
Codec ID : 2000
Duration : 1h 33mn
Bit rate mode : Constant
Bit rate : 192 Kbps
Channel(s) : 2 channels
Channel positions : Front: L R
Sampling rate : 48.0 KHz
Bit depth : 16 bits
Compression mode : Lossy
Stream size : 129 MiB (9%)
Alignment : Split accross interleaves
Interleave, duration : 42 ms (1.00 video frame)
Interleave, preload duration : 500 ms
Скриншоты
Скачать

Скачать торрент!

Как скачивать? · Что такое торрент? · Рейтинг и ограничения

Сайт не распространяет и не хранит электронные версии произведений, а лишь предоставляет доступ к создаваемому пользователями каталогу ссылок на торрент-файлы, которые содержат только списки хеш-сумм

[Профиль] [ЛС]
Показать сообщения:    
Ответить на тему

Текущее время: Сегодня 18:22

Часовой пояс: GMT + 4



Вы не можете начинать темы
Вы не можете отвечать на сообщения
Вы не можете редактировать свои сообщения
Вы не можете удалять свои сообщения
Вы не можете голосовать в опросах
Вы не можете прикреплять файлы к сообщениям
Вы не можете скачивать файлы