Спасение / The Salvation (Кристиан Левринг / Kristian Levring) [2014, Дания, Великобритания, ЮАР, вестерн, боевик, драма, DVDRip-AVC] Sub (Rus)

Ответить на тему
 
Автор Сообщение

user ®

Стаж: 7 лет 7 месяцев

Сообщений: 20008

Пост Пост: #1 от 18-Окт-2014 03:50

[Цитировать]

Спасение / The Salvation- Год выпуска: 2014
Страна: Дания, ЮАР, Великобритания
Студии: Zentropa Entertainments, Forward Films, Spier Films
Жанр: вестерн, боевик, драма
Продолжительность: 01:28:20-Перевод: Субтитры (znaika, daisy_d, zomb1g)
Озвучение: нет
Субтитры: русские
Оригинальная дорожка: английская-Режиссёр: Кристиан Левринг / Kristian Levring
Сценарий: Андерс Томас Йенсен
Композитор: Каспер Виндинг-В ролях: Мадс Миккельсен, Ева Грин, Джеффри Дин Морган, Эрик Кантона, Микаэль Персбрандт, Дуглас Хеншолл, Майкл Реймонд-Джеймс, Джонатан Прайс, Нанна Эланд Фабрисиус, Токе Ларс Бьярке, Александер Арнольд-Йон, фермер, чья семья убита, дает клятву отомстить, выслеживает и наказывает убийцу. Его действия запускают цепочку насилия: лидер местной банды со своими напарниками решает расправиться с Йоном и его деревней.-Перевод выполнен специально для фан-группы Mads Mikkelsen fans.
Раздача для поклонников Мадса Миккельсена и тех, кто предпочитает слышать родную речь актеров.
Источник рипа: Официальный датский DVD- -Качество: DVDRip-AVC (ripped by Mannenr)
Формат: MKV
Кодек видео: H.264
Кодек звука: AC3
Видео: H.264, 716x428@1018x428, 25 fps, 1269 kbps, 0.166 bit/pixel
Аудио: AC3, 48 kHz, 6 ch, 448 kbps
Субтитры: русские (sofsub)
MediaInfo
General
Unique ID                      : 217353626018356460433100930278853180981 (0xA384C922C855CA6490C3FBDEA5C3FE35)
Complete name                  : D:\CINEMA\DENMARK\Спасение (The Salvation) (2014).mkv
Format                         : Matroska
Format version                 : Version 4 / Version 2
File size                      : 1.08 GiB
Duration                       : 1h 28mn
Overall bit rate               : 1 752 Kbps
Encoded date                   : UTC 2014-10-17 14:23:58
Writing application            : mkvmerge v6.4.1 ('Omega Point') built on Sep 16 2013 22:05:10
Writing library                : libebml v1.3.0 + libmatroska v1.4.1
Video
ID                             : 1
Format                         : AVC
Format/Info                    : Advanced Video Codec
Format profile                 : High@L3.1
Format settings, CABAC         : Yes
Format settings, ReFrames      : 9 frames
Codec ID                       : V_MPEG4/ISO/AVC
Duration                       : 1h 28mn
Bit rate                       : 1 269 Kbps
Width                          : 716 pixels
Height                         : 428 pixels
Display aspect ratio           : 2.40:1
Frame rate mode                : Constant
Frame rate                     : 25.000 fps
Color space                    : YUV
Chroma subsampling             : 4:2:0
Bit depth                      : 8 bits
Scan type                      : Progressive
Bits/(Pixel*Frame)             : 0.166
Stream size                    : 802 MiB (72%)
Writing library                : x264 core 130 r2273 b3065e6
Encoding settings              : cabac=1 / ref=9 / deblock=1:-3:-3 / analyse=0x3:0x133 / me=umh / subme=9 / psy=1 / psy_rd=1.00:0.00 / mixed_ref=1 / me_range=24 / chroma_me=1 / trellis=2 / 8x8dct=1 / cqm=0 / deadzone=21,11 / fast_pskip=0 / chroma_qp_offset=-2 / threads=6 / lookahead_threads=1 / sliced_threads=0 / nr=0 / decimate=1 / interlaced=0 / bluray_compat=0 / constrained_intra=0 / bframes=6 / b_pyramid=2 / b_adapt=2 / b_bias=0 / direct=3 / weightb=1 / open_gop=0 / weightp=2 / keyint=250 / keyint_min=25 / scenecut=40 / intra_refresh=0 / rc_lookahead=60 / rc=crf / mbtree=1 / crf=18.0 / qcomp=0.60 / qpmin=0 / qpmax=69 / qpstep=4 / ip_ratio=1.40 / aq=2:1.00
Language                       : English
Default                        : Yes
Forced                         : No
Color primaries                : BT.601 PAL
Transfer characteristics       : BT.709
Matrix coefficients            : BT.601
Audio
ID                             : 2
Format                         : AC-3
Format/Info                    : Audio Coding 3
Mode extension                 : CM (complete main)
Format settings, Endianness    : Big
Codec ID                       : A_AC3
Duration                       : 1h 28mn
Bit rate mode                  : Constant
Bit rate                       : 448 Kbps
Channel(s)                     : 6 channels
Channel positions              : Front: L C R, Side: L R, LFE
Sampling rate                  : 48.0 KHz
Bit depth                      : 16 bits
Compression mode               : Lossy
Stream size                    : 283 MiB (26%)
Language                       : English
Default                        : Yes
Forced                         : No
Text
ID                             : 3
Format                         : UTF-8
Codec ID                       : S_TEXT/UTF8
Codec ID/Info                  : UTF-8 Plain Text
Language                       : Russian
Default                        : Yes
Forced                         : No
Menu
00:00:00.000                   : en:Chapter 1
00:09:55.280                   : en:Chapter 2
00:19:58.160                   : en:Chapter 3
00:30:10.640                   : en:Chapter 4
00:39:01.040                   : en:Chapter 5
00:49:57.680                   : en:Chapter 6
00:59:57.200                   : en:Chapter 7
01:08:47.120                   : en:Chapter 8
01:19:27.440                   : en:Chapter 9
Отрывок субтитров
6
00:04:30,000 --> 00:04:33,000
- Крестен, это твой отец.
- Добрый день.
7
00:04:48,600 --> 00:04:51,000
- Добро пожаловать, Мари.
- Спасибо.
8
00:04:51,100 --> 00:04:53,300
- Рада видеть тебя.
- Я тоже рад.
9
00:04:53,400 --> 00:04:56,000
Поздоровайся с дядей, Петер.
10
00:04:56,100 --> 00:04:57,800
Добрый день.
11
00:04:59,000 --> 00:05:03,800
Мне, наверное, уже пора.
Смотрите не опоздайте на свой дилижанс.
12
00:05:03,900 --> 00:05:05,600
Ты не идешь с нами?
13
00:05:05,800 --> 00:05:07,000
Ну нет.
14
00:05:07,100 --> 00:05:10,600
Петеру лучше пока
не возвращаться в город.
15
00:05:39,600 --> 00:05:42,200
- Здравствуйте.
- Добрый день, мэм.
16
00:05:43,000 --> 00:05:45,000
А куда вы едете?
17
00:05:46,700 --> 00:05:51,000
Моя жена не говорит
по-английски. Но обязательно научится.
Скриншот с названием Скриншоты
Скачать

Скачать торрент!

Как скачивать? · Что такое торрент? · Рейтинг и ограничения

Сайт не распространяет и не хранит электронные версии произведений, а лишь предоставляет доступ к создаваемому пользователями каталогу ссылок на торрент-файлы, которые содержат только списки хеш-сумм

[Профиль] [ЛС]
Показать сообщения:    
Ответить на тему

Текущее время: Сегодня 03:49

Часовой пояс: GMT + 4



Вы не можете начинать темы
Вы не можете отвечать на сообщения
Вы не можете редактировать свои сообщения
Вы не можете удалять свои сообщения
Вы не можете голосовать в опросах
Вы не можете прикреплять файлы к сообщениям
Вы не можете скачивать файлы