Дженнифер 8 / Jennifer Eight (Брюс Робинсон / Bruce Robinson) [1992, США, триллер, драма, криминал, детектив, BDRip 1080p] DVO + MVO + 2xAVO + Sub Eng + Original Eng

Ответить на тему
 
Автор Сообщение

user ®

Стаж: 7 лет 7 месяцев

Сообщений: 20008

Пост Пост: #1 от 17-Окт-2014 21:30

[Цитировать]

Дженнифер 8 / Jennifer Eight
Страна: США
Студия: Paramount Pictures
Жанр: триллер, драма, криминал, детектив
Год выпуска: 1992
Продолжительность: 02:05:20
Перевод : Профессиональный (двухголосый закадровый) Paramount channel
Перевод 2: Профессиональный (многоголосый закадровый) СТС
Перевод 3: Авторский (одноголосый закадровый) Андрей Гаврилов
Перевод 4: Авторский (одноголосый закадровый) Леонид Володарский
Cубтитры: английские
Оригинальная аудиодорожка: английский
Режиссер: Брюс Робинсон / Bruce Robinson
В ролях: Энди Гарсиа, Ума Турман, Лэнс Хенриксен, Кэти Бейкер, Грэм Беккел, Кевин Конуэй, Джон Малкович, Ленни Фон Долен, Пол Бэйтс, Перри Лэнг, Николас Лав, Брайан Ларкин, Майкл О'Нейлл, Роберт Гантон
Описание: У детектива Джона Берлина, идущего по следу серийного убийцы, нет ни улик, ни подозреваемых. И нет алиби. Уставший от напряженного ритма «каменных джунглей», приходящий в себя после неудачного брака, только излечившийся от алкоголизма лос-анжелесский полицейский Джон Берлин решает сменить обстановку.
Он принимает приглашение своего друга и коллеги и приезжает в маленький городок на севере Калифорнии. Но вместо желанной тихой сельской жизни Джону приходится включиться в поиски серийного убийцы, чьими жертвами стали семь молоденьких слепых девушек.
II Сэмпл II IMDB II
Доп. информация:
За [url=http://***/forum/viewtopic.php?t=4578694]исходник[/url] спасибо Alan James
Первая дорога записана с т/к Paramount channel
Тип релиза: BDRip 1080p
Контейнер: MKV
Видео: AVC / 1920x1080 / 16:9 / 23.976fps / Bit rate 17000Kbps / High@L4.1
Аудио 1: AC3 / 48.0KHz / 2ch. / 192kbps / rus / dvo / Paramount channel
Аудио 2: AC3 / 48.0KHz / 2ch. / 192kbps / rus / mvo / CTC
Аудио 3: AC3 / 48.0KHz / 2ch. / 192kbps / rus / avo / А. Гаврилов
Аудио 4: AC3 / 48.0KHz / 2ch. / 192kbps / rus / avo / Л. Володарский
Аудио 5: DTS / 48KHz / 24bits / 6ch / 1509Kbps / eng
Формат субтитров: softsub (SRT)
MediaInfo
Общее
Уникальный идентификатор : 233582487265646301822958539151210655395 (0xAFBA59C592091826B5809665F66F2EA3)
Полное имя : E:\torrent\Jennifer Eight.BDRip.1080p.mkv
Формат : Matroska
Версия формата : Version 4 / Version 2
Размер файла : 16,9 Гбайт
Продолжительность : 2 ч. 5 м.
Общий поток : 19,3 Мбит/сек
Дата кодирования : UTC 2014-10-16 05:25:47
Программа кодирования : mkvmerge v7.2.0 ('On Every Street') 64bit built on Sep 13 2014 15:52:10
Библиотека кодирования : libebml v1.3.0 + libmatroska v1.4.1
DURATION : 01:58:12.124000000
NUMBER_OF_FRAMES : 1099
NUMBER_OF_BYTES : 46038
_STATISTICS_WRITING_APP : mkvmerge v7.2.0 ('On Every Street') 64bit built on Sep 13 2014 15:52:10
_STATISTICS_WRITING_DATE_UTC : 2014-10-16 05:25:47
_STATISTICS_TAGS : BPS DURATION NUMBER_OF_FRAMES NUMBER_OF_BYTES
Видео
Идентификатор : 1
Формат : AVC
Формат/Информация : Advanced Video Codec
Профиль формата : High@L4.1
Параметр CABAC формата : Да
Параметр ReFrames формата : 4 кадра
Идентификатор кодека : V_MPEG4/ISO/AVC
Продолжительность : 2 ч. 5 м.
Битрейт : 17,0 Мбит/сек
Ширина : 1920 пикселей
Высота : 1080 пикселей
Соотношение сторон : 16:9
Режим частоты кадров : Постоянный
Частота кадров : 23,976 кадра/сек
Цветовое пространство : YUV
Субдискретизация насыщенности : 4:2:0
Битовая глубина : 8 бит
Тип развёртки : Прогрессивная
Бит/(Пиксели*Кадры) : 0.342
Размер потока : 14,5 Гбайт (86%)
Заголовок : Jennifer Eight.BDRip.1080p
Библиотека кодирования : x264 core 133 r2334 a3ac64b
Настройки программы : cabac=1 / ref=4 / deblock=1:-1:-1 / analyse=0x3:0x133 / me=umh / subme=11 / psy=1 / psy_rd=1.00:0.10 / mixed_ref=1 / me_range=48 / chroma_me=1 / trellis=2 / 8x8dct=1 / cqm=0 / deadzone=21,11 / fast_pskip=0 / chroma_qp_offset=-3 / threads=12 / lookahead_threads=2 / sliced_threads=0 / nr=0 / decimate=1 / interlaced=0 / bluray_compat=0 / constrained_intra=0 / bframes=8 / b_pyramid=2 / b_adapt=2 / b_bias=0 / direct=3 / weightb=1 / open_gop=0 / weightp=2 / keyint=250 / keyint_min=23 / scenecut=40 / intra_refresh=0 / rc_lookahead=50 / rc=2pass / mbtree=1 / bitrate=17000 / ratetol=1.0 / qcomp=0.60 / qpmin=0 / qpmax=69 / qpstep=4 / cplxblur=20.0 / qblur=0.5 / vbv_maxrate=50000 / vbv_bufsize=62500 / nal_hrd=none / ip_ratio=1.40 / aq=1:1.00
Default : Да
Forced : Нет
DURATION : 02:05:20.180000000
NUMBER_OF_FRAMES : 180304
NUMBER_OF_BYTES : 15976150053
_STATISTICS_WRITING_APP : mkvmerge v7.2.0 ('On Every Street') 64bit built on Sep 13 2014 15:52:10
_STATISTICS_WRITING_DATE_UTC : 2014-10-16 05:25:47
_STATISTICS_TAGS : BPS DURATION NUMBER_OF_FRAMES NUMBER_OF_BYTES
Аудио #1
Идентификатор : 2
Формат : AC-3
Формат/Информация : Audio Coding 3
Расширение режима : CM (complete main)
Параметр Endianness формата : Big
Идентификатор кодека : A_AC3
Продолжительность : 2 ч. 5 м.
Вид битрейта : Постоянный
Битрейт : 192 Кбит/сек
Каналы : 2 канала
Расположение каналов : Front: L R
Частота : 48,0 КГц
Битовая глубина : 16 бит
Метод сжатия : С потерями
Размер потока : 172 Мбайт (1%)
Заголовок : rus / dvo / Paramount channel / AC3 / 48KHz / 2ch / 192Kbps
Язык : Russian
Default : Да
Forced : Нет
Аудио #2
Идентификатор : 3
Формат : AC-3
Формат/Информация : Audio Coding 3
Расширение режима : CM (complete main)
Параметр Endianness формата : Big
Идентификатор кодека : A_AC3
Продолжительность : 2 ч. 5 м.
Вид битрейта : Постоянный
Битрейт : 192 Кбит/сек
Каналы : 2 канала
Расположение каналов : Front: L R
Частота : 48,0 КГц
Битовая глубина : 16 бит
Метод сжатия : С потерями
Размер потока : 172 Мбайт (1%)
Заголовок : rus / mvo / CTC / AC3 / 48KHz / 2ch / 192Kbps
Язык : Russian
Default : Нет
Forced : Нет
Аудио #3
Идентификатор : 4
Формат : AC-3
Формат/Информация : Audio Coding 3
Расширение режима : CM (complete main)
Параметр Endianness формата : Big
Идентификатор кодека : A_AC3
Продолжительность : 2 ч. 5 м.
Вид битрейта : Постоянный
Битрейт : 192 Кбит/сек
Каналы : 2 канала
Расположение каналов : Front: L R
Частота : 48,0 КГц
Битовая глубина : 16 бит
Метод сжатия : С потерями
Размер потока : 172 Мбайт (1%)
Заголовок : rus / avo / Gavrilov / AC3 / 48KHz / 2ch / 192Kbps
Язык : Russian
Default : Нет
Forced : Нет
Аудио #4
Идентификатор : 5
Формат : AC-3
Формат/Информация : Audio Coding 3
Расширение режима : CM (complete main)
Параметр Endianness формата : Big
Идентификатор кодека : A_AC3
Продолжительность : 2 ч. 5 м.
Вид битрейта : Постоянный
Битрейт : 192 Кбит/сек
Каналы : 2 канала
Расположение каналов : Front: L R
Частота : 48,0 КГц
Битовая глубина : 16 бит
Метод сжатия : С потерями
Размер потока : 172 Мбайт (1%)
Заголовок : rus / avo / Volodarsky / AC3 / 48KHz / 2ch / 192Kbps
Язык : Russian
Default : Нет
Forced : Нет
Аудио #5
Идентификатор : 6
Формат : DTS
Формат/Информация : Digital Theater Systems
Режим : 16
Параметр Endianness формата : Big
Идентификатор кодека : A_DTS
Продолжительность : 2 ч. 5 м.
Вид битрейта : Постоянный
Битрейт : 1509 Кбит/сек
Каналы : 6 каналов
Расположение каналов : Front: L C R, Side: L R, LFE
Частота : 48,0 КГц
Битовая глубина : 24 бит
Метод сжатия : С потерями
Размер потока : 1,32 Гбайт (8%)
Заголовок : eng / DTS / 48KHz / 24bits / 6ch / 1509Kbps
Язык : English
Default : Нет
Forced : Нет
Текст
Идентификатор : 7
Формат : UTF-8
Идентификатор кодека : S_TEXT/UTF8
Идентификатор кодека/Информация : UTF-8 Plain Text
Заголовок : subtitle eng
Язык : English
Default : Нет
Forced : Нет
Сравнение с исходником Скриншоты x264 info
x264 info
x264 [info]: using SAR=1/1
x264 [info]: using cpu capabilities: MMX2 SSE2Fast SSSE3 SSE4.2 AVX
x264 [info]: profile High, level 4.1
x264 [info]: frame I:892 Avg QP:17.04 size:221564
x264 [info]: frame P:40746 Avg QP:19.03 size:118902
x264 [info]: frame B:138666 Avg QP:20.04 size: 78850
x264 [info]: consecutive B-frames: 1.2% 2.8% 4.8% 39.8% 16.2% 29.9% 3.2% 1.8% 0.2%
x264 [info]: mb I I16..4: 4.3% 87.9% 7.7%
x264 [info]: mb P I16..4: 1.2% 27.7% 0.7% P16..4: 27.4% 33.4% 7.9% 0.6% 0.0% skip: 1.2%
x264 [info]: mb B I16..4: 0.3% 9.6% 0.1% B16..8: 43.0% 18.2% 3.1% direct:12.2% skip:13.5% L0:44.3% L1:46.7% BI: 9.0%
x264 [info]: 8x8 transform intra:94.9% inter:66.3%
x264 [info]: direct mvs spatial:97.1% temporal:2.9%
x264 [info]: coded y,uvDC,uvAC intra: 95.2% 50.1% 14.4% inter: 56.3% 29.3% 0.7%
x264 [info]: i16 v,h,dc,p: 68% 8% 9% 15%
x264 [info]: i8 v,h,dc,ddl,ddr,vr,hd,vl,hu: 7% 5% 12% 12% 15% 13% 11% 12% 12%
x264 [info]: i4 v,h,dc,ddl,ddr,vr,hd,vl,hu: 15% 8% 16% 8% 12% 12% 10% 10% 10%
x264 [info]: i8c dc,h,v,p: 22% 45% 23% 11%
x264 [info]: Weighted P-Frames: Y:4.3% UV:1.5%
x264 [info]: ref P L0: 48.6% 8.3% 26.3% 15.7% 1.1% 0.0%
x264 [info]: ref B L0: 83.1% 12.7% 4.2%
x264 [info]: ref B L1: 91.6% 8.4%
x264 [info]: kb/s:16995.50
x264 [total]: encoded 180304 frames, 4.19 fps, 16995.50 kb/s
Скачать

Скачать торрент!

Как скачивать? · Что такое торрент? · Рейтинг и ограничения

Сайт не распространяет и не хранит электронные версии произведений, а лишь предоставляет доступ к создаваемому пользователями каталогу ссылок на торрент-файлы, которые содержат только списки хеш-сумм

[Профиль] [ЛС]
Показать сообщения:    
Ответить на тему

Текущее время: Сегодня 13:38

Часовой пояс: GMT + 4



Вы не можете начинать темы
Вы не можете отвечать на сообщения
Вы не можете редактировать свои сообщения
Вы не можете удалять свои сообщения
Вы не можете голосовать в опросах
Вы не можете прикреплять файлы к сообщениям
Вы не можете скачивать файлы