Фантазёры / Фэнтестикс / The Fantasticks (Майкл Ритчи / Michael Ritchie) [1995, США, мелодрама, комедия, мюзикл, HDTV 1080i] DVO

Ответить на тему
 
Автор Сообщение

user ®

Стаж: 7 лет 7 месяцев

Сообщений: 20008

Пост Пост: #1 от 17-Окт-2014 21:30

[Цитировать]

Фантазёры / Фэнтестикс / The Fantasticks Страна: США
Жанр: мелодрама, комедия, мюзикл
Год выпуска: 1995
Продолжительность: 01:23:03
Перевод: Профессиональный (двухголосый закадровый)
Cубтитры: нет
Режиссер: Майкл Ритчи / Michael Ritchie
В ролях: Джоэль Грэй, Барнард Хьюз, Джин Луиза Келли, Джозеф Макинтайр, Джонатан Моррис, Брэд Салливан Теллер, Артуро Джил, Тони Кокс, Виктория Стивенс
Описание: Мальчик и девочка живут на соседних фермах и нравятся друг другу, но их семьи категорически против их дружбы. Однако подростки и не догадываются, что на самом деле их отцы - большие друзья и собираются поженить своих детей, но для этого им сначала надо... расстаться!
В AVI от edich2 тут: [url=http://***/forum/viewtopic.php?t=4449928]http://***/forum/viewtopic.php?t=4449928[/url]

Сэмпл: http://rusfolder.com/42008942
Тип релиза: HDTV 1080i
Контейнер: TS
Видео: AVC/H.264, PAL, 1920х1080 (16:9), 25 fps, 5770 Kbps
Аудио: русский, MP-2, 48000 Hz, 192 Кбит/сек, 2 ch
MediaInfo
Общее
Идентификатор : 1 (0x1)
Полное имя : D:\Фантазёры.ts
Формат : MPEG-TS
Размер файла : 3,64 Гбайт
Продолжительность : 1 ч. 23 м.
Режим общего битрейта : Переменный
Общий поток : 6274 Кбит/сек
Видео
Идентификатор : 3731 (0xE93)
Идентификатор меню : 1 (0x1)
Формат : AVC
Формат/Информация : Advanced Video Codec
Профиль формата : Main@L4.0
Параметр CABAC формата : Да
Параметр ReFrames формата : 3 кадра
Идентификатор кодека : 27
Продолжительность : 1 ч. 23 м.
Битрейт : 5770 Кбит/сек
Ширина : 1920 пикселей
Высота : 1080 пикселей
Соотношение сторон : 16:9
Частота кадров : 25,000 кадров/сек
Стандарт вещания : Component
Цветовое пространство : YUV
Субдискретизация насыщенности : 4:2:0
Битовая глубина : 8 бит
Тип развёртки : Чересстрочная
Порядок развёртки : Верхнее поле первое
Бит/(Пиксели*Кадры) : 0.111
Размер потока : 3,35 Гбайт (92%)
Основные цвета : BT.709
Характеристики трансфера : BT.709
Коэффициенты матрицы : BT.709
Аудио
Идентификатор : 3732 (0xE94)
Идентификатор меню : 1 (0x1)
Формат : MPEG Audio
Версия формата : Version 1
Профиль формата : Layer 2
Идентификатор кодека : 3
Продолжительность : 1 ч. 23 м.
Вид битрейта : Постоянный
Битрейт : 192 Кбит/сек
Каналы : 2 канала
Частота : 48,0 КГц
Метод сжатия : С потерями
Размер потока : 114 Мбайт (3%)
Язык : Russian
Скриншот c названием фильма Скриншоты
Скачать

Скачать торрент!

Как скачивать? · Что такое торрент? · Рейтинг и ограничения

Сайт не распространяет и не хранит электронные версии произведений, а лишь предоставляет доступ к создаваемому пользователями каталогу ссылок на торрент-файлы, которые содержат только списки хеш-сумм

[Профиль] [ЛС]
Показать сообщения:    
Ответить на тему

Текущее время: Сегодня 02:17

Часовой пояс: GMT + 4



Вы не можете начинать темы
Вы не можете отвечать на сообщения
Вы не можете редактировать свои сообщения
Вы не можете удалять свои сообщения
Вы не можете голосовать в опросах
Вы не можете прикреплять файлы к сообщениям
Вы не можете скачивать файлы